Welcome Guest ( Log In | Register )

> Releases Upload / Добавление релизов

Добавить релиз тут / Click here to add release
Рекомендованные обменники / Recommended file shares

> Retribution - I Am The Ghost Of My Past (2019), Death/Thrash Metal
post Dec 1 2019, 20:03:27
Post #1

Правь статус, ####!111
**************
Group: Металариец
Posts: 19,899
Releases: 13511
From: Г.Харьков
On Forums: 7 years 7 months
Thanks: 233681 time(s)
Unknown


(IMG:http://metalarea.org/images/audiocovers/2019_Dec/acov_tid331053_thumb.jpg)

*Artist: Retribution
*Album: I Am The Ghost Of My Past
*Year: 2019
*Genre: Death/Thrash Metal
*Country: Netherlands (IMG:http://metalarea.org/forum/style_images/flags/Netherlands.png)
*Format: mp3@CBR320kbps
*Size: 107MB

Tracklist:
1. King of Oblivion
2. Degeneration Protocol
3. Sin by Sin
4. Dystopia
5. My Escape
6. Within the Hourglass
7. Shades of Lunacy
8. I Am the Ghost of My Past
9. Song of Praise
10. Obscure the Sky
******************************
Total playing time: 46:40

Preview 1


Extended info
Ferry Adams Drums (2003-present)
See also: ex-In Memoriam, ex-Stench of Death
Tom Bronneberg Guitars (2003-present)
See also: Daemonos, Scornage, ex-Bloodmoon, ex-Burnt Offerings, ex-Celestial Dawn, ex-Existenz, ex-Lethality, ex-Ostara
Thie Thomsen Guitars (rhythm), Vocals (2003-present)
See also: ex-In Memoriam, ex-The Assault
Job Verdonschot Bass (2006-present)
See also: ex-Arkngthand


Technical info
(IMG:http://metalarea.org/images/spectrogram/2019_Dec/90b169be012c58dcdc0743c95581d0f4.png)
Input File: 03 - Sin by Sin.mp3
Channels : 2
Sample Rate : 44100
Precision : 16-bit
Duration : 00:04:24.82 = 11678606 samples = 19861.6 CDDA sectors
File Size : 10.6M
Bit Rate : 320k
Sample Encoding: MPEG audio (layer I, II or III)
Comments :
Title=Sin by Sin
Artist=Retribution
Album=I Am the Ghost of My Past
Tracknumber=3
Year=2019
Genre=Death Metal
Discnumber=1



Register


Go to the top of the page
  Insert nick Quick quote
+Quote Post
 
Start new topic
Replies (1 - 1)
post Dec 2 2019, 06:45:28
Post #2

hearer & reader
**************
Group: Металариец
Posts: 8,250
Releases: 111
From: Moscow
On Forums: 12 years 3 months
Thanks: 7781 time(s)
Russian Federation


Халявное прошлое банды -
Go to the top of the page
  Insert nick Quick quote
+Quote Post

Reply to this topicStart new topic
1 User(s) are reading this topic (1 Guests and 0 Anonymous Users)
0 Members:

 



- Lo-Fi Version Support form
Copyrights and abuse reports form
Time is now: 16th December 2019 - 11:13:51