Welcome Guest ( Log In | Register )

> Releases Upload / Добавление релизов

Добавить релиз тут / Click here to add release
Рекомендованные обменники / Recommended file shares

> Civil War - Dead Man's Glory [single] (2019), Heavy/Power Metal
post Dec 1 2019, 20:13:23
Post #1

MDM-Thrash Metal
**************
Group: Металариец
Posts: 9,132
Releases: 758
From: Одесса
On Forums: 12 years 4 months
Thanks: 20165 time(s)
Ukraine


(IMG:http://metalarea.org/images/audiocovers/2019_Dec/acov_tid331054_thumb.jpg)

*Artist: Civil War
*Album: Dead Man's Glory [single]
*Year: 2019
*Genre: Heavy/Power Metal
*Country: Sweden (IMG:http://metalarea.org/forum/style_images/flags/Sweden.png)
*Format: mp3@CBR320kbps
*Size: 10MB

Tracklist:
1. Dead Man's Glory 05:23
******************************
Total playing time: 5:23


(IMG:http://metalarea.org/images/youtube.png)


Technical info
(IMG:http://metalarea.org/images/spectrogram/2019_Dec/7da2bff308cd82f027c3d2a3411b88d7.png)
Input File: 01_civil_war_dead_mans_glory.mp3
Channels : 2
Sample Rate : 48000
Precision : 16-bit
Duration : 00:05:13.46 = 15046272 samples ~ 23509.8 CDDA sectors
File Size : 10.5M
Bit Rate : 268k
Sample Encoding: MPEG audio (layer I, II or III)
Comments :
Title=Dead Man's Glory
Artist=Civil War
Album=Dead Man's Glory
Year=20190802



Register


Go to the top of the page
  Insert nick Quick quote
+Quote Post
 
Start new topic
Replies (1 - 3)
post Dec 2 2019, 10:54:56
Post #2

тебе 29, а ты все реверсами балуешься
***********
Group: Металариец
Posts: 1,796
Releases: 4
On Forums: 11 years 4 months
Thanks: 534 time(s)
Russian Federation


Карпентер жарит, как всегда.
Всё как надо (IMG:style_emoticons/default/20.gif)
Go to the top of the page
  Insert nick Quick quote
+Quote Post
post Dec 2 2019, 14:35:39
Post #3


********
Group: Металариец
Posts: 838
Releases: 83
From: Москва/Моск. обл
On Forums: 12 years 2 months
Thanks: 2518 time(s)
Russian Federation


Карпентер, конечно, прекрасен, спору нет, но зачем он расходует свое время на стандартный павер? (я бы себя, наверно, убил за такие слова лет 10 назад, во всяком случае, возненавидел) Лучше бы больше проектов вроде Zierler - там можно намного ярче развернуться его вокалу.
Go to the top of the page
  Insert nick Quick quote
+Quote Post
post Dec 2 2019, 17:41:32
Post #4

тебе 29, а ты все реверсами балуешься
***********
Group: Металариец
Posts: 1,796
Releases: 4
On Forums: 11 years 4 months
Thanks: 534 time(s)
Russian Federation


ЦИТАТА(Angren @ Dec 2 2019, 16:35:39) *
Карпентер, конечно, прекрасен, спору нет, но зачем он расходует свое время на стандартный павер? (я бы себя, наверно, убил за такие слова лет 10 назад, во всяком случае, возненавидел) Лучше бы больше проектов вроде Zierler - там можно намного ярче развернуться его вокалу.


Ну или тот же Epysode (IMG:style_emoticons/default/20.gif)
Мб ему в ГрОбе Civil War платят приличные деньги. Или просто решил отдохнуть от серьёзных проектов (IMG:style_emoticons/default/1488.gif)

Послушал Zierler - в коллекцию однозначно, я как-то совершенно не знал про этот проект его.
Так вот Zierler не будет собирать кучу народу на том же Вакене, кмк.
Go to the top of the page
  Insert nick Quick quote
+Quote Post

Reply to this topicStart new topic
1 User(s) are reading this topic (1 Guests and 0 Anonymous Users)
0 Members:

 



- Lo-Fi Version Support form
Copyrights and abuse reports form
Time is now: 16th December 2019 - 10:54:45