Welcome Guest ( Log In | Register )

> Releases Upload / Добавление релизов

Добавить релиз тут / Click here to add release
Рекомендованные обменники / Recommended file shares

> Dispyria - The Journey To Aelyrea (2019), Heavy Metal
post Dec 1 2019, 20:28:04
Post #1

MDM-Thrash Metal
**************
Group: Металариец
Posts: 9,132
Releases: 758
From: Одесса
On Forums: 12 years 4 months
Thanks: 20166 time(s)
Ukraine


(IMG:http://metalarea.org/images/audiocovers/2019_Dec/acov_tid331055_thumb.jpg)

*Artist: Dispyria
*Album: The Journey To Aelyrea
*Year: 2019
*Genre: Heavy Metal
*Country: Germany (IMG:http://metalarea.org/forum/style_images/flags/Germany.png)
*Format: mp3@CBR320kbps
*Size: 117MB

Tracklist:
01. The Queens Garden
02. Here I Am
03. 5 2 12
04. Supernova
05. Virus
06. The Flame
07. Twister
08. Tears of an Angel
09. Aelyrea
10. Mind Over Matter
11. The Abyss
******************************
Total playing time: 50:53


(IMG:http://metalarea.org/images/youtube.png)

Technical info
(IMG:http://metalarea.org/images/spectrogram/2019_Dec/bccc168fc7cd4764a2c474e912780ba8.png)
Input File: 02 - Here I Am.mp3
Channels : 2
Sample Rate : 44100
Precision : 16-bit
Duration : 00:04:00.11 = 10588719 samples = 18008 CDDA sectors
File Size : 9.61M
Bit Rate : 320k
Sample Encoding: MPEG audio (layer I, II or III)
Comments :
Title=Here I Am
Artist=Dispyria
Album=The Journey To Aelyrea
Tracknumber=2
Year=2019
Genre=Metal
Discnumber=1



Register


Go to the top of the page
  Insert nick Quick quote
+Quote Post
 
Start new topic
Replies (1 - 3)
post Dec 2 2019, 06:39:37
Post #2

hearer & reader
**************
Group: Металариец
Posts: 8,250
Releases: 111
From: Moscow
On Forums: 12 years 3 months
Thanks: 7781 time(s)
Russian Federation



Рок-опера одного из основателей Superior
Ни разу не хэви.
Go to the top of the page
  Insert nick Quick quote
+Quote Post
post Dec 2 2019, 09:06:00
Post #3

Правь статус, ####!111
**************
Group: Металариец
Posts: 19,899
Releases: 13511
From: Г.Харьков
On Forums: 7 years 7 months
Thanks: 233681 time(s)
Unknown


ЦИТАТА(AHBAnep @ 2nd December 2019 - 07:39:37) *
Ни разу не хэви.

хард роковая оперетта)))
Go to the top of the page
  Insert nick Quick quote
+Quote Post
post Yesterday, 19:42:07
Post #4

Перевозчик
**************
Group: Металариец
Posts: 3,088
Releases: 0
On Forums: 11 years 5 months
Thanks: 677 time(s)
Russian Federation


Обычно мне нравятся вокальные м+ж дуэты, но тут вообще всё очень плохо. (IMG:style_emoticons/default/smile2.gif)
Go to the top of the page
  Insert nick Quick quote
+Quote Post

Reply to this topicStart new topic
1 User(s) are reading this topic (1 Guests and 0 Anonymous Users)
0 Members:

 



- Lo-Fi Version Support form
Copyrights and abuse reports form
Time is now: 16th December 2019 - 11:26:11