Welcome Guest ( Log In | Register )

> Releases Upload / Добавление релизов

Добавить релиз тут / Click here to add release
Рекомендованные обменники / Recommended file shares

 
Reply to this topicStart new topic
> Vanaheimr - The Ghosts Of Our Past [ep] (2019), Progressive Black/Death Metal
post Dec 1 2019, 21:05:11
Post #1

Правь статус, ####!111
**************
Group: Металариец
Posts: 19,899
Releases: 13511
From: Г.Харьков
On Forums: 7 years 7 months
Thanks: 233681 time(s)
Unknown


(IMG:http://metalarea.org/images/audiocovers/2019_Dec/acov_tid331056_thumb.jpg)

*Artist: Vanaheimr
*Album: The Ghosts Of Our Past [ep]
*Year: 2019
*Genre: Progressive Black/Death Metal
*Country: United Kingdom (IMG:http://metalarea.org/forum/style_images/flags/United%20Kingdom.png)
*Format: mp3@CBR320kbps
*Size: 68MB

Tracklist:
01. Incantation
02. Symbolic Ruins Along Ancient Paths
03. The Witch's Curse
04. Exorcism
05. The Ghosts of Our Past
06. Creeping Death
07. The Ghost of Our Past
08. Into the Abyss
******************************
Total playing time: 33:28




Extended info
Thomas 'Fjordhammer' Fordham Everything


Technical info
(IMG:http://metalarea.org/images/spectrogram/2019_Dec/6e681f24f45e824a0ac10312da1ad0e8.png)
Input File: 03. The Witch\'s Curse.mp3
Channels : 2
Sample Rate : 44100
Precision : 16-bit
Duration : 00:05:55.29 = 15668201 samples = 26646.6 CDDA sectors
File Size : 14.2M
Bit Rate : 321k
Sample Encoding: MPEG audio (layer I, II or III)
Comments :
Title=The Witch's Curse
Artist=Vanaheimr
Album=The Ghosts of Our Past
Tracknumber=3/8
Year=2019
Genre=9
Discnumber=1/1



Register


Go to the top of the page
  Insert nick Quick quote
+Quote Post

Reply to this topicStart new topic
1 User(s) are reading this topic (1 Guests and 0 Anonymous Users)
0 Members:

 



- Lo-Fi Version Support form
Copyrights and abuse reports form
Time is now: 16th December 2019 - 10:55:15