Welcome Guest ( Log In | Register )

> Releases Upload / Добавление релизов

Добавить релиз тут / Click here to add release
Рекомендованные обменники / Recommended file shares

 
Reply to this topicStart new topic
> Ghost Walker - Violent Actions [ep] (2019), Thrash Metal
post Dec 1 2019, 21:40:40
Post #1

Правь статус, ####!111
**************
Group: Металариец
Posts: 19,899
Releases: 13511
From: Г.Харьков
On Forums: 7 years 7 months
Thanks: 233683 time(s)
Unknown


(IMG:http://metalarea.org/images/audiocovers/2019_Dec/acov_tid331057_thumb.jpg)

*Artist: Ghost Walker
*Album: Violent Actions [ep]
*Year: 2019
*Genre: Thrash Metal
*Country: United States (IMG:http://metalarea.org/forum/style_images/flags/United%20States.png)
*Format: mp3@CBR320kbps
*Size: 48MB

Tracklist:
01. Ignite
02. Hollywood Burns
03. Shadows
04. Haunting
05. Disgrace
06. Strength in Numbers
******************************
Total playing time: 22:21



Extended info
Erik Flaspohler
Matt Dunn
Reuben Ginsburg
Paul Haupt
Joe Romanyk



Technical info
(IMG:http://metalarea.org/images/spectrogram/2019_Dec/ceedeb89a6d714a49c13996faa15ebe8.png)
Input File: 03. Shadows.mp3
Channels : 2
Sample Rate : 44100
Precision : 16-bit
Duration : 00:04:36.11 = 12176275 samples = 20708 CDDA sectors
File Size : 11.2M
Bit Rate : 324k
Sample Encoding: MPEG audio (layer I, II or III)
Comments :
Title=Shadows
Artist=Ghost Walker
Album=Violent Actions
Tracknumber=3/6
Year=2019
Genre=9
Discnumber=1/1



Register


Go to the top of the page
  Insert nick Quick quote
+Quote Post

Reply to this topicStart new topic
1 User(s) are reading this topic (1 Guests and 0 Anonymous Users)
0 Members:

 



- Lo-Fi Version Support form
Copyrights and abuse reports form
Time is now: 16th December 2019 - 11:39:20