Welcome Guest ( Log In | Register )

> Releases Upload / Добавление релизов

Добавить релиз тут / Click here to add release
Рекомендованные обменники / Recommended file shares

 
Reply to this topicStart new topic
> Impostor - Liber Tenebris (2019), Groove/Thrash Metal
post Dec 1 2019, 22:06:33
Post #1

Правь статус, ####!111
**************
Group: Металариец
Posts: 19,899
Releases: 13511
From: Г.Харьков
On Forums: 7 years 7 months
Thanks: 233681 time(s)
Unknown


(IMG:http://metalarea.org/images/audiocovers/2019_Dec/acov_tid331058_thumb.jpg)

*Artist: Impostor
*Album: Liber Tenebris
*Year: 2019
*Genre: Groove/Thrash Metal
*Country: Argentina (IMG:http://metalarea.org/forum/style_images/flags/Argentina.png)
*Format: mp3@CBR320kbps
*Size: 78MB

Tracklist:
1. Impostor 04:12
2. Odio 03:33
3. Cordero de dios 04:17
4. Pirómano 04:29
5. Poseída 04:36
6. Cautivo 04:32
7. Ser o ser 03:51
8. Sínodo del terror 03:54
******************************
Total playing time: 33:24




Extended info
Marcelo Maidana Bass, Vocals (2018-present)
See also: Morador, ex-Manifiesto
Ayelén Gimenez Drums (2018-present)
See also: ex-Filosa
Sebastian Gimenez Guitars (2018-present)
See also: Neural, Ocultos
Leandro Marquez Guitars (2018-present)
David Ferreira Vocals (lead) (2018-present)
See also: ex-Amenaza, ex-Ruskin Arms


Technical info
(IMG:http://metalarea.org/images/spectrogram/2019_Dec/5edc44dac5c0bf6f903617ebd891f5b4.png)
Input File: 04 - Pirómano.mp3
Channels : 2
Sample Rate : 44100
Precision : 16-bit
Duration : 00:04:29.23 = 11873131 samples = 20192.4 CDDA sectors
File Size : 10.9M
Bit Rate : 324k
Sample Encoding: MPEG audio (layer I, II or III)
Comments :
Title=Pirómano
Artist=Impostor
Album=Liber Tenebris
Tracknumber=4
Year=2019-12-01
Discnumber=1



Register


Go to the top of the page
  Insert nick Quick quote
+Quote Post

Reply to this topicStart new topic
1 User(s) are reading this topic (1 Guests and 0 Anonymous Users)
0 Members:

 



- Lo-Fi Version Support form
Copyrights and abuse reports form
Time is now: 16th December 2019 - 10:55:31