Welcome Guest ( Log In | Register )

> И неформату есть предел.

Рэп/хип-хоп/шансон/поп удаляются. Для них есть свои порталы.

> Kamchatka - Hoodoo Lightning (2019), Blues/Stoner Rock (D6)
post Dec 2 2019, 08:43:42
Post #1

Правь статус, ####!111
**************
Group: Металариец
Posts: 44,528
Releases: 688
On Forums: 10 years 6 months
Thanks: 35846 time(s)
Russian Federation


(IMG:http://metalarea.org/images/audiocovers/2019_Dec/acov_tid331059_thumb.jpg)

*Artist: Kamchatka
*Album: Hoodoo Lightning
*Year: 2019
*Genre: Blues/Stoner Rock
*Country: Sweden (IMG:http://metalarea.org/forum/style_images/flags/Sweden.png)
*Format: mp3@CBR320kbps
*Size: 92MB

Tracklist:
1. Blues Science, Pt. 1 Thunder Rise 02:06
2. Blues Science, Pt. 2 Hoodoo Lightning 03:20
3. Fool 03:40
4. Rainbow Ridge 03:35
5. Supersonic Universe 04:03
6. Monster 04:04
7. Let It Roll 05:25
8. Stay In The Wind 04:30
9. El Hombre Dorado 04:29
10. A Drifter's Tale 05:05
******************************
Total playing time: 40:17



Technical info
(IMG:http://metalarea.org/images/spectrogram/2019_Dec/1fe8848fa5dd0b50393c4c2e115ae286.png)
Input File: 01 Blues Science Pt. 1 Thunder Rise.mp3
Channels : 2
Sample Rate : 44100
Precision : 16-bit
Duration : 00:02:06.10 = 5561010 samples = 9457.5 CDDA sectors
File Size : 5.05M
Bit Rate : 320k
Sample Encoding: MPEG audio (layer I, II or III)
Comments :
Title=Blues Science, Pt. 1 Thunder Rise
Artist=Kamchatka
Album=Hoodoo Lightning
Tracknumber=01/10
Year=2019-19-20
Discnumber=1/1



Register


Go to the top of the page
  Insert nick Quick quote
+Quote Post
 
Start new topic
Replies (1 - 3)
post Dec 2 2019, 13:12:49
Post #2

Правь статус, ####!111
**************
Group: Металариец
Posts: 44,528
Releases: 688
On Forums: 10 years 6 months
Thanks: 35846 time(s)
Russian Federation


Проектец чувака из King Hobo - Mauga (2019)
Go to the top of the page
  Insert nick Quick quote
+Quote Post
post Dec 2 2019, 13:16:54
Post #3

Литр
*
Group: Подсевший
Posts: 94
Releases: 0
On Forums: 1 week 5 days
Thanks: 33 time(s)
Russian Federation


Напомнило самые блюзовые вещи Clutch, правда с блеклым вокалом.


Thanks:
(1) Tular,
Go to the top of the page
  Insert nick Quick quote
+Quote Post
post Dec 2 2019, 13:45:02
Post #4

И Ван Дамм По Делам Вашим!
**************
Group: Металариец
Posts: 18,025
Releases: 26
On Forums: 11 years 5 months
Thanks: 9708 time(s)
Honduras


Как то не сильно душевно.
Go to the top of the page
  Insert nick Quick quote
+Quote Post

Reply to this topicStart new topic
1 User(s) are reading this topic (1 Guests and 0 Anonymous Users)
0 Members:

 



- Lo-Fi Version Support form
Copyrights and abuse reports form
Time is now: 11th December 2019 - 04:47:44