Welcome Guest ( Log In | Register )

> Releases Upload / Добавление релизов

Добавить релиз тут / Click here to add release
Рекомендованные обменники / Recommended file shares

 
Reply to this topicStart new topic
> Ancient Crown - Blood Evolved (2019), Death/Thrash Metal
post Dec 2 2019, 09:55:00
Post #1

Правь статус, ####!111
**************
Group: Металариец
Posts: 19,899
Releases: 13511
From: Г.Харьков
On Forums: 7 years 7 months
Thanks: 233681 time(s)
Unknown


(IMG:http://metalarea.org/images/audiocovers/2019_Dec/acov_tid331060_thumb.jpg)

*Artist: Ancient Crown
*Album: Blood Evolved
*Year: 2019
*Genre: Death/Thrash Metal
*Country: United States (IMG:http://metalarea.org/forum/style_images/flags/United%20States.png)
*Format: mp3@CBR320kbps
*Size: 90MB

Tracklist:
1. Ghost of Future Vision 04:42
2. Helm of Awe 05:03
3. On Primal Fire 06:10
4. Call of Divination 06:14
5. Above and Beneath 06:02
6. Eye on the Line 04:02
7. Blood Evolved 06:21
******************************
Total playing time: 38:34




Extended info
Andrew Hurlbut - Vocals
Barry Hurlbut - Guitars
Buddy Fischel - Guitars
Jeremy Herr - Bass
Bryan Stock - Drums




Technical info
(IMG:http://metalarea.org/images/spectrogram/2019_Dec/e1e091bfe345fb2615bee19f973367e3.png)
Input File: 03 - On Primal Fire.mp3
Channels : 2
Sample Rate : 44100
Precision : 16-bit
Duration : 00:06:10.44 = 16336228 samples = 27782.7 CDDA sectors
File Size : 15.1M
Bit Rate : 325k
Sample Encoding: MPEG audio (layer I, II or III)
Comments :
Title=On Primal Fire
Artist=Ancient Crown
Album=Blood Evolved
Tracknumber=3
Year=2019-12-02
Discnumber=1



Register


Go to the top of the page
  Insert nick Quick quote
+Quote Post

Reply to this topicStart new topic
1 User(s) are reading this topic (1 Guests and 0 Anonymous Users)
0 Members:

 



- Lo-Fi Version Support form
Copyrights and abuse reports form
Time is now: 16th December 2019 - 10:54:21