Welcome Guest ( Log In | Register )

> Releases Upload / Добавление релизов

Добавить релиз тут / Click here to add release
Рекомендованные обменники / Recommended file shares

 
Reply to this topicStart new topic
> Sigma - Re(In)Volución (2019), Thrash Metal/Crossover
post Dec 2 2019, 10:19:36
Post #1

Правь статус, ####!111
**************
Group: Металариец
Posts: 19,899
Releases: 13511
From: Г.Харьков
On Forums: 7 years 7 months
Thanks: 233681 time(s)
Unknown


(IMG:http://metalarea.org/images/audiocovers/2019_Dec/acov_tid331061_thumb.jpg)

*Artist: Sigma
*Album: Re(In)Volución
*Year: 2019
*Genre: Thrash Metal/Crossover
*Country: Chile (IMG:http://metalarea.org/forum/style_images/flags/Chile.png)
*Format: mp3@CBR320kbps
*Size: 54MB

Tracklist:
1. V.H.S. (Violent Horror Syndrome) 01:04
2. Posesión infernal 03:06
3. El final ('19) 03:06
4. Lobos 01:40
5. Serial Killer 02:47
6. Venganza 02:00
7. Biodesagradable 02:51
8. Actitud bizarra (Anarkitran cover) 01:33
9. Bastardizador 01:54
10. Mosh, Cerveza & Slam 02:30
******************************
Total playing time: 22:31




Extended info
Patricio Cornejo Vocals (backing), Bass
Fabian Contreras Vocals (lead)
Mauricio "Plasma" Guitars, Vocals (backing)
Claudio Tapia Drums




Technical info
(IMG:http://metalarea.org/images/spectrogram/2019_Dec/8b1d6f3b83ed4a8e76b1baadcd95480e.png)
Input File: 03 - El Final.mp3
Channels : 2
Sample Rate : 44100
Precision : 16-bit
Duration : 00:03:06.94 = 8244142 samples = 14020.6 CDDA sectors
File Size : 7.64M
Bit Rate : 327k
Sample Encoding: MPEG audio (layer I, II or III)
Comments :
Title=El Final
Artist=Sigma
Album=Re(in)volución
Tracknumber=3
Year=2019-12-02
Discnumber=1



Register


Go to the top of the page
  Insert nick Quick quote
+Quote Post

Reply to this topicStart new topic
1 User(s) are reading this topic (1 Guests and 0 Anonymous Users)
0 Members:

 



- Lo-Fi Version Support form
Copyrights and abuse reports form
Time is now: 16th December 2019 - 11:23:05