Welcome Guest ( Log In | Register )

> Releases Upload / Добавление релизов

Добавить релиз тут / Click here to add release
Рекомендованные обменники / Recommended file shares

 
Reply to this topicStart new topic
> Kapala - Der Suchende (2019), Black/Doom Metal
post Dec 2 2019, 10:41:37
Post #1

Правь статус, ####!111
**************
Group: Металариец
Posts: 19,812
Releases: 13428
From: Г.Харьков
On Forums: 7 years 7 months
Thanks: 232471 time(s)
Unknown


(IMG:http://metalarea.org/images/audiocovers/2019_Dec/acov_tid331062_thumb.jpg)

*Artist: Kapala
*Album: Der Suchende
*Year: 2019
*Genre: Black/Doom Metal
*Country: Germany (IMG:http://metalarea.org/forum/style_images/flags/Germany.png)
*Format: mp3@CBR320kbps
*Size: 91MB

Tracklist:
1. Initiation Metamorphose 06:22
2. Tief unten 06:08
3. Des gewundenen Weg 04:01
4. Azoth 05:09
5. Therianthropie 07:01
6. Der Gebrochene und der Meister 04:38
7. König der Könige 06:25
******************************
Total playing time: 39:44




Extended info
Kenaz Bass (Session)
OM Drums
Asaru Guitars
Almir Guitars
Tehom Vocals


Technical info
(IMG:http://metalarea.org/images/spectrogram/2019_Dec/ee85d3b33ce8224fb85e86e5aff37f1e.png)
Input File: 04 - Azoth.mp3
Channels : 2
Sample Rate : 44100
Precision : 16-bit
Duration : 00:05:08.47 = 13603527 samples = 23135.3 CDDA sectors
File Size : 12.5M
Bit Rate : 323k
Sample Encoding: MPEG audio (layer I, II or III)
Comments :
Title=Azoth
Artist=Kapala
Album=Der Suchende
Tracknumber=4
Year=2019-12-02
Genre=Rock; Metal
Discnumber=1



Register


Go to the top of the page
  Insert nick Quick quote
+Quote Post

Reply to this topicStart new topic
1 User(s) are reading this topic (1 Guests and 0 Anonymous Users)
0 Members:

 



- Lo-Fi Version Support form
Copyrights and abuse reports form
Time is now: 10th December 2019 - 11:13:58