Welcome Guest ( Log In | Register )

> Kapala - Der Suchende (2019), Black/Doom Metal
post Dec 2 2019, 10:41:37
Post #1

Правь статус, ####!111
**************
Group: Металариец
Posts: 22,246
Releases: 15400
From: Г.Харьков
On Forums: 8 years 1 month
Thanks: 281332 time(s)
Unknown


(IMG:http://metalarea.org/images/audiocovers/2019_Dec/acov_tid331062_thumb.jpg)

*Artist: Kapala
*Album: Der Suchende
*Year: 2019
*Genre: Black/Doom Metal
*Country: Germany (IMG:http://metalarea.org/forum/style_images/flags/Germany.png)
*Format: mp3@CBR320kbps
*Size: 91MB

Tracklist:
1. Initiation Metamorphose 06:22
2. Tief unten 06:08
3. Des gewundenen Weg 04:01
4. Azoth 05:09
5. Therianthropie 07:01
6. Der Gebrochene und der Meister 04:38
7. König der Könige 06:25
******************************
Total playing time: 39:44




Extended info
Kenaz Bass (Session)
OM Drums
Asaru Guitars
Almir Guitars
Tehom Vocals


Technical info
(IMG:http://metalarea.org/images/spectrogram/2019_Dec/ee85d3b33ce8224fb85e86e5aff37f1e.png)
Input File: 04 - Azoth.mp3
Channels : 2
Sample Rate : 44100
Precision : 16-bit
Duration : 00:05:08.47 = 13603527 samples = 23135.3 CDDA sectors
File Size : 12.5M
Bit Rate : 323k
Sample Encoding: MPEG audio (layer I, II or III)
Comments :
Title=Azoth
Artist=Kapala
Album=Der Suchende
Tracknumber=4
Year=2019-12-02
Genre=Rock; Metal
Discnumber=1



Register


Go to the top of the page
  Insert nick Quick quote
+Quote Post
 
Start new topic
Replies (1 - 2)
post Dec 14 2019, 19:34:15
Post #2

кручу наждак
**************
Group: Металариец
Posts: 4,475
Releases: 102
From: Самара
On Forums: 10 years 1 month
Thanks: 3587 time(s)
Russian Federation


Ни похвалить, ни поругать - абсолютно безликая музыка.
Go to the top of the page
  Insert nick Quick quote
+Quote Post
post Jan 1 2020, 10:08:29
Post #3

...Only Death Is Real...
**************
Group: Металариец
Posts: 2,841
Releases: 16
On Forums: 9 years 11 months
Thanks: 1845 time(s)
Antarctica


Тю, я уж про индусов подумал, а эта капала из Германии... (IMG:style_emoticons/default/21.gif)
Go to the top of the page
  Insert nick Quick quote
+Quote Post

Reply to this topicStart new topic
1 User(s) are reading this topic (1 Guests and 0 Anonymous Users)
0 Members:

 



- Lo-Fi Version Support form
Copyrights and abuse reports form
Time is now: 3rd July 2020 - 23:28:22