Welcome Guest ( Log In | Register )

> Releases Upload / Добавление релизов

Добавить релиз тут / Click here to add release
Рекомендованные обменники / Recommended file shares

> Muvitium - Evighetens Cirkel​.​.​. (2019), Black Metal/Dark Ambient
post Dec 2 2019, 11:12:09
Post #1

Правь статус, ####!111
**************
Group: Металариец
Posts: 19,899
Releases: 13511
From: Г.Харьков
On Forums: 7 years 7 months
Thanks: 233683 time(s)
Unknown


(IMG:http://metalarea.org/images/audiocovers/2019_Dec/acov_tid331063_thumb.jpg)

*Artist: Muvitium
*Album: Evighetens Cirkel​.​.​.
*Year: 2019
*Genre: Black Metal/Dark Ambient
*Country: Sweden (IMG:http://metalarea.org/forum/style_images/flags/Sweden.png)
*Format: mp3@CBR320kbps
*Size: 100MB

Tracklist:
1. Evig Vandring till Gamla Riken 07:28
2. De Viskande Vindarna 08:12
3. Vid Mörkrets Fäste 06:02
4. Under en Iskall Natt 06:54
5. I Nattsvart Dunkel 10:08
6. Nordisk Frostnatt 04:10
******************************
Total playing time: 42:54


(IMG:http://metalarea.org/images/youtube.png)

Technical info
(IMG:http://metalarea.org/images/spectrogram/2019_Dec/a99855bae9800279d3db3755a93c47b1.png)
Input File: 03 Vid Mörkrets Fäste.mp3
Channels : 2
Sample Rate : 44100
Precision : 16-bit
Duration : 00:06:02.08 = 15967728 samples = 27156 CDDA sectors
File Size : 14.8M
Bit Rate : 328k
Sample Encoding: MPEG audio (layer I, II or III)
Comments :
Title=Vid Mörkrets Fäste
Artist=Muvitium
Album=Evighetens Cirkel...
Tracknumber=3
Year=2019
Genre=Black Metal



Register


Go to the top of the page
  Insert nick Quick quote
+Quote Post
 
Start new topic
Replies (1 - 5)
post Dec 2 2019, 15:04:53
Post #2

Правь статус, ####!111
**************
Group: Металариец
Posts: 2,560
Releases: 12
On Forums: 12 years 4 months
Thanks: 1445 time(s)
Russian Federation


Видимо даудус. Вокал блекловат. Музло понравилось.
Go to the top of the page
  Insert nick Quick quote
+Quote Post
post Dec 2 2019, 23:58:38
Post #3

Group: Подсевший
Posts: 10
Releases: 0
On Forums: 7 months 5 days
Thanks: 0 time(s)
Russian Federation


Весьма хорошо. А я-то уже было разочаровался в скандинавском блэке..
Go to the top of the page
  Insert nick Quick quote
+Quote Post
post Dec 8 2019, 20:34:59
Post #4

Два Литра
**
Group: Завсегдатай
Posts: 125
Releases: 0
From: Vilnius
On Forums: 12 years 9 months
Thanks: 10 time(s)
Lithuania


Годно!
Go to the top of the page
  Insert nick Quick quote
+Quote Post
post Dec 12 2019, 16:09:18
Post #5

Group: Подсевший
Posts: 18
Releases: 0
From: г. Нальчик
On Forums: 7 years 2 days
Thanks: 27 time(s)
Russian Federation


FLAC (tracks) 499 MB
Register


Go to the top of the page
  Insert nick Quick quote
+Quote Post
post Dec 14 2019, 08:23:06
Post #6

sycamore trees
**************
Group: Металариец
Posts: 3,211
Releases: 0
On Forums: 3 years 10 months
Thanks: 1951 time(s)
Unknown


выразительнее чем Tyranni, но по сути такая же жвачка.
Go to the top of the page
  Insert nick Quick quote
+Quote Post

Reply to this topicStart new topic
1 User(s) are reading this topic (1 Guests and 0 Anonymous Users)
0 Members:

 



- Lo-Fi Version Support form
Copyrights and abuse reports form
Time is now: 16th December 2019 - 11:35:50