Welcome Guest ( Log In | Register )

> Releases Upload / Добавление релизов

Добавить релиз тут / Click here to add release
Рекомендованные обменники / Recommended file shares

 
Reply to this topicStart new topic
> Black Funeral - Journeys Into Horizons Lost/Of Spells Of Darkness & Death [compilation] (2017), Black Metal (D)
post Dec 2 2019, 11:43:09
Post #1

неделимое
*****
Group: Металариец
Posts: 475
Releases: 18
On Forums: 8 years 2 months
Thanks: 428 time(s)
Russian Federation


(IMG:http://metalarea.org/images/audiocovers/2019_Dec/acov_tid331064_thumb.jpg)

*Artist: Black Funeral
*Album: Journeys Into Horizons Lost/Of Spells Of Darkness & Death [compilation]
*Year: 2017
*Genre: Black Metal
*Country: United States (IMG:http://metalarea.org/forum/style_images/flags/United%20States.png)
*Format: mp3@VBR267kbps
*Size: 65MB

Tracklist:
1. Within The Ballinok Mountains 02:12
2. Into The Stars Of A Blazing Past 03:13
3. Journeys Into Horizons Lost 04:43
4. The Land Beyond The Forest 01:09
5. Armageddon (Lord Sathanas Returns) 03:06
6. Voice Of A Forgotten Ghoul 03:51
7. Rise Of The Wolves Age 02:48
8. Journey Into Horizons Lost - Bubonic Death 04:14
9. Into The Stars Of A Blazing Past 02:03
10. Walking The Shadow Side 02:52
11. Outro 03:24
******************************
Total playing time: 33:35



Technical info
(IMG:http://metalarea.org/images/spectrogram/2019_Dec/30b2d1a617346e834ea8644bc849c288.png)
Input File: 02 - Into The Stars Of A Blazing Past.mp3
Channels : 2
Sample Rate : 44100
Precision : 16-bit
Duration : 00:03:13.96 = 8553592 samples = 14546.9 CDDA sectors
File Size : 7.70M
Bit Rate : 318k
Sample Encoding: MPEG audio (layer I, II or III)



Register


Go to the top of the page
  Insert nick Quick quote
+Quote Post

Reply to this topicStart new topic
1 User(s) are reading this topic (1 Guests and 0 Anonymous Users)
0 Members:

 



- Lo-Fi Version Support form
Copyrights and abuse reports form
Time is now: 16th December 2019 - 10:55:26