Welcome Guest ( Log In | Register )

> И неформату есть предел.

Рэп/хип-хоп/шансон/поп удаляются. Для них есть свои порталы.

> Redscale - Feed Them To The Lions (2019), Heavy/Stoner Rock
post Dec 2 2019, 11:45:14
Post #1

Девять Литров
*********
Group: Металариец
Posts: 982
Releases: 1
From: Харьков
On Forums: 11 years 3 months
Thanks: 295 time(s)
Ukraine


(IMG:http://metalarea.org/images/audiocovers/2019_Dec/acov_tid331065_thumb.jpg)

*Artist: Redscale
*Album: Feed Them To The Lions
*Year: 2019
*Genre: Heavy/Stoner Rock
*Country: Germany (IMG:http://metalarea.org/forum/style_images/flags/Germany.png)
*Format: mp3@CBR320kbps
*Size: 106MB

Tracklist:
1. Feed Them to the Lions
2. Hydra
3. Unstuck in Time
4. The Hard Rain
5. Bells of War
6. Cold Dawn
7. Ashes
8. Phoenix
******************************
Total playing time: 46:17

(IMG:http://metalarea.org/images/youtube.png)

Technical info
(IMG:http://metalarea.org/images/spectrogram/2019_Dec/766e6ae8fe35b4c3ff883640518911bb.png)
Input File: 03 - Unstuck in Time.mp3
Channels : 2
Sample Rate : 44100
Precision : 16-bit
Duration : 00:02:34.60 = 6818036 samples = 11595.3 CDDA sectors
File Size : 6.24M
Bit Rate : 323k
Sample Encoding: MPEG audio (layer I, II or III)
Comments :
Title=Unstuck in Time
Artist=Redscale
Album=Feed Them to the Lions
Tracknumber=03/08
Year=2019
Genre=79



Register


Thanks:
Go to the top of the page
  Insert nick Quick quote
+Quote Post
 
Start new topic
Replies (1 - 1)
post Dec 2 2019, 13:53:32
Post #2

Девять Литров
*********
Group: Металариец
Posts: 982
Releases: 1
From: Харьков
On Forums: 11 years 3 months
Thanks: 295 time(s)
Ukraine


Go to the top of the page
  Insert nick Quick quote
+Quote Post

Reply to this topicStart new topic
1 User(s) are reading this topic (1 Guests and 0 Anonymous Users)
0 Members:

 



- Lo-Fi Version Support form
Copyrights and abuse reports form
Time is now: 11th December 2019 - 04:43:43