Welcome Guest ( Log In | Register )

> Releases Upload / Добавление релизов

Добавить релиз тут / Click here to add release
Рекомендованные обменники / Recommended file shares

 
Reply to this topicStart new topic
> Metalblack - Souls Of The Burning Woods (2019), Atmospheric Black Metal
post Dec 2 2019, 11:57:23
Post #1

Правь статус, ####!111
**************
Group: Металариец
Posts: 19,899
Releases: 13511
From: Г.Харьков
On Forums: 7 years 7 months
Thanks: 233683 time(s)
Unknown


(IMG:http://metalarea.org/images/audiocovers/2019_Dec/acov_tid331067_thumb.jpg)

*Artist: Metalblack
*Album: Souls Of The Burning Woods
*Year: 2019
*Genre: Atmospheric Black Metal
*Country: Russian Federation (IMG:http://metalarea.org/forum/style_images/flags/Russian%20Federation.png)
*Format: mp3@CBR320kbps
*Size: 108MB

Tracklist:
1. Two Souls 06:36
2. Sleep Child 06:55
3. Cosmic Dust 06:59
4. Waiting for Nothing 06:57
5. Hints 06:25
6. Siberia on Fire 05:55
7. Don't Scream 08:11
******************************
Total playing time: 47:58


Preview 2

Extended info
MetalBlack Everything (2009-present)


Technical info
(IMG:http://metalarea.org/images/spectrogram/2019_Dec/fee3cb5ff4b5a6e5cffbb77c10c56c39.png)
Input File: 03 - Cosmic Dust.mp3
Channels : 2
Sample Rate : 44100
Precision : 16-bit
Duration : 00:06:59.04 = 18479840 samples = 31428.3 CDDA sectors
File Size : 16.8M
Bit Rate : 320k
Sample Encoding: MPEG audio (layer I, II or III)
Comments :
Title=Cosmic Dust
Artist=MetalBlack
Album=Souls of the Burning Woods
Tracknumber=3
Year=2019
Genre=Black Metal



Register


Go to the top of the page
  Insert nick Quick quote
+Quote Post

Reply to this topicStart new topic
1 User(s) are reading this topic (1 Guests and 0 Anonymous Users)
0 Members:

 



- Lo-Fi Version Support form
Copyrights and abuse reports form
Time is now: 16th December 2019 - 12:01:55