Welcome Guest ( Log In | Register )

> И неформату есть предел.

Рэп/хип-хоп/шансон/поп удаляются. Для них есть свои порталы.

> Redscale - Set In Stone (2017), Heavy/Stoner Rock
post Dec 2 2019, 12:01:48
Post #1

Девять Литров
*********
Group: Металариец
Posts: 981
Releases: 0
From: Харьков
On Forums: 11 years 3 months
Thanks: 283 time(s)
Ukraine


(IMG:http://metalarea.org/images/audiocovers/2019_Dec/acov_tid331068_thumb.jpg)

*Artist: Redscale
*Album: Set In Stone
*Year: 2017
*Genre: Heavy/Stoner Rock
*Country: Germany (IMG:http://metalarea.org/forum/style_images/flags/Germany.png)
*Format: mp3@CBR320kbps
*Size: 75MB

Tracklist:
1. The Ascent
2. Olympus
3. False Light
4. Atlas
5. The Collapse
6. Hypnos
7. Prometheus
8. The Descent
9. Beast from Below
******************************
Total playing time: 32:25

(IMG:http://metalarea.org/images/youtube.png)

Technical info
(IMG:http://metalarea.org/images/spectrogram/2019_Dec/94ee0e0a8d17e744aea0dc11f5d8fe38.png)
Input File: 08 - The Descent.mp3
Channels : 2
Sample Rate : 44100
Precision : 16-bit
Duration : 00:01:45.38 = 4647170 samples = 7903.35 CDDA sectors
File Size : 4.27M
Bit Rate : 324k
Sample Encoding: MPEG audio (layer I, II or III)
Comments :
Title=The Descent
Artist=Redscale
Album=Set In Stone
Tracknumber=8
Year=2017
Genre=Heavy Rock/Stoner



Register


Thanks:
(1) Olethros,
Go to the top of the page
  Insert nick Quick quote
+Quote Post
 
Start new topic
Replies (1 - 1)
post Dec 2 2019, 13:52:54
Post #2

Девять Литров
*********
Group: Металариец
Posts: 981
Releases: 0
From: Харьков
On Forums: 11 years 3 months
Thanks: 283 time(s)
Ukraine


Go to the top of the page
  Insert nick Quick quote
+Quote Post

Reply to this topicStart new topic
1 User(s) are reading this topic (1 Guests and 0 Anonymous Users)
0 Members:

 



- Lo-Fi Version Support form
Copyrights and abuse reports form
Time is now: 10th December 2019 - 11:25:24