Welcome Guest ( Log In | Register )

> Releases Upload / Добавление релизов

Добавить релиз тут / Click here to add release
Рекомендованные обменники / Recommended file shares

 
Reply to this topicStart new topic
> Rhodium - Sea Of The Dead (2019), Progressive Heavy/Power Metal
post Dec 2 2019, 12:23:32
Post #1

Правь статус, ####!111
**************
Group: Металариец
Posts: 19,899
Releases: 13511
From: Г.Харьков
On Forums: 7 years 7 months
Thanks: 233683 time(s)
Unknown


(IMG:http://metalarea.org/images/audiocovers/2019_Dec/acov_tid331069_thumb.jpg)

*Artist: Rhodium
*Album: Sea Of The Dead
*Year: 2019
*Genre: Progressive Heavy/Power Metal
*Country: Greece (IMG:http://metalarea.org/forum/style_images/flags/Greece.png)
*Format: mp3@CBR320kbps
*Size: 102MB

Tracklist:
1. A Path of Wrath 00:58
2. Man of Honor 03:34
3. Delirio 04:17
4. First Light of Day 04:50
5. Sea of The Dead 06:15
6. The Emperor 06:30
7. Sisters of Fate 04:31
8. Tapestry of Time 04:44
9. Fight Back 04:37
10. Doomsfay 03:55
******************************
Total playing time: 44:11




Extended info
Loukas Wolv Antoniou Guitars
George Theofilas Guitars
Mike Lee Vocals
Vasilis Sotiriou Bass
Stelios Pavlou Drums



Technical info
(IMG:http://metalarea.org/images/spectrogram/2019_Dec/7fcf76c5d58160c9330cc4d3c21c9b17.png)
Input File: 4 - First Light of Day.mp3
Channels : 2
Sample Rate : 44100
Precision : 16-bit
Duration : 00:04:50.29 = 12801701 samples = 21771.6 CDDA sectors
File Size : 11.7M
Bit Rate : 322k
Sample Encoding: MPEG audio (layer I, II or III)
Comments :
Title=First Light Of Day
Artist=Rhodium
Album=Sea Of The Dead
Tracknumber=4
Year=2019
Genre=Metal
Discnumber=1



Register


Go to the top of the page
  Insert nick Quick quote
+Quote Post

Reply to this topicStart new topic
1 User(s) are reading this topic (1 Guests and 0 Anonymous Users)
0 Members:

 



- Lo-Fi Version Support form
Copyrights and abuse reports form
Time is now: 16th December 2019 - 12:15:25