Welcome Guest ( Log In | Register )

> И неформату есть предел.

Рэп/хип-хоп/шансон/поп удаляются. Для них есть свои порталы.

 
Reply to this topicStart new topic
> Redscale - Under The Spell [ep] (2016), Heavy/Stoner Rock
post Dec 2 2019, 12:54:00
Post #1

Девять Литров
*********
Group: Металариец
Posts: 981
Releases: 0
From: Харьков
On Forums: 11 years 3 months
Thanks: 283 time(s)
Ukraine


(IMG:http://metalarea.org/images/audiocovers/2019_Dec/acov_tid331070_thumb.jpg)

*Artist: Redscale
*Album: Under The Spell [ep]
*Year: 2016
*Genre: Heavy/Stoner Rock
*Country: Germany (IMG:http://metalarea.org/forum/style_images/flags/Germany.png)
*Format: mp3@CBR320kbps
*Size: 24MB

Tracklist:
1. Mojo
2. Black Heart
3. The Tome
******************************
Total playing time: 10:28



Technical info
(IMG:http://metalarea.org/images/spectrogram/2019_Dec/afde054f3e80f20e929ff2934f7f48d8.png)
Input File: 01 - Mojo.mp3
Channels : 2
Sample Rate : 44100
Precision : 16-bit
Duration : 00:03:38.08 = 9617416 samples = 16356.1 CDDA sectors
File Size : 8.82M
Bit Rate : 324k
Sample Encoding: MPEG audio (layer I, II or III)
Comments :
Title=Mojo
Artist=Redscale
Album=Under the Spell EP
Tracknumber=1
Year=2016



Register


Thanks:
(1) Olethros,
Go to the top of the page
  Insert nick Quick quote
+Quote Post

Reply to this topicStart new topic
1 User(s) are reading this topic (1 Guests and 0 Anonymous Users)
0 Members:

 



- Lo-Fi Version Support form
Copyrights and abuse reports form
Time is now: 10th December 2019 - 11:14:05