Welcome Guest ( Log In | Register )

> Releases Upload / Добавление релизов

Добавить релиз тут / Click here to add release
Рекомендованные обменники / Recommended file shares

 
Reply to this topicStart new topic
> Outbreak Riot - Stagnation (2014), Thrash Metal
post Dec 2 2019, 13:05:18
Post #1

Правь статус, ####!111
**************
Group: Металариец
Posts: 19,812
Releases: 13428
From: Г.Харьков
On Forums: 7 years 7 months
Thanks: 232475 time(s)
Unknown


(IMG:http://metalarea.org/images/audiocovers/2019_Dec/acov_tid331071_thumb.jpg)

*Artist: Outbreak Riot
*Album: Stagnation
*Year: 2014
*Genre: Thrash Metal
*Country: Japan (IMG:http://metalarea.org/forum/style_images/flags/Japan.png)
*Format: mp3@CBR320kbps
*Size: 92MB

Tracklist:
1. No Control
2. Bloodshed
3. Grind Impact
4. Goddess of Blood
5. Stagnation
6. End of the World
7. Nightmare City
8. Territory
9. Final Die Hard
10. Escape from Reality
******************************
Total playing time: 40:43




Extended info
Hiroki Hamashima Bass (2004-present)
See also: Witchslaught, ex-Anal Ninja (live), ex-Significant Point (live)
Toru Minegishi Vocals (2012-present)
Daisuke Fukushima Guitars (2016-present)
Taichiro Sekiya Guitars (2017-present)
See also: Anal Ninja


Technical info
(IMG:http://metalarea.org/images/spectrogram/2019_Dec/4ab20a79075064da1521cc407f7554f4.png)
Input File: 05 - Stagnation.mp3
Channels : 2
Sample Rate : 44100
Precision : 16-bit
Duration : 00:06:12.59 = 16431043 samples = 27944 CDDA sectors
File Size : 14.9M
Bit Rate : 320k
Sample Encoding: MPEG audio (layer I, II or III)
Comments :
Title=Stagnation
Artist=Outbreak Riot
Album=Stagnation
Tracknumber=5
Year=2014
Genre=Thrash Metal



Register


Go to the top of the page
  Insert nick Quick quote
+Quote Post

Reply to this topicStart new topic
1 User(s) are reading this topic (1 Guests and 0 Anonymous Users)
0 Members:

 



- Lo-Fi Version Support form
Copyrights and abuse reports form
Time is now: 10th December 2019 - 12:08:02