Welcome Guest ( Log In | Register )

> Releases Upload / Добавление релизов

Добавить релиз тут / Click here to add release
Рекомендованные обменники / Recommended file shares

> Vermiculum - Penumbra (2019), Black Metal
post Dec 2 2019, 13:37:44
Post #1

Правь статус, ####!111
**************
Group: Металариец
Posts: 19,818
Releases: 13447
From: Г.Харьков
On Forums: 7 years 7 months
Thanks: 232576 time(s)
Unknown


(IMG:http://metalarea.org/images/audiocovers/2019_Dec/acov_tid331072_thumb.jpg)

*Artist: Vermiculum
*Album: Penumbra
*Year: 2019
*Genre: Black Metal
*Country: United States (IMG:http://metalarea.org/forum/style_images/flags/United%20States.png)
*Format: mp3@CBR320kbps
*Size: 105MB

Tracklist:
1. DSOL 10:15
2. Descension 07:49
3. Skelm 08:42
4. Albatross 08:40
5. Renounce 10:25
******************************
Total playing time: 45:51



Extended info
Vox, Guitar, Bass - Will Gadow
Drums - Matt Nokes
Synths/Strings - Devon Campbell
Additional Guitars - Carson Braymer, Johnny McDaniel, Matt Nokes, Devon Campbell
Additional Vox - Devon Campbell


Technical info
(IMG:http://metalarea.org/images/spectrogram/2019_Dec/a26191bea5bdc5c562a3a7981e681eb3.png)
Input File: 03 - Skelm.mp3
Channels : 2
Sample Rate : 44100
Precision : 16-bit
Duration : 00:08:42.50 = 23042426 samples = 39187.8 CDDA sectors
File Size : 21.0M
Bit Rate : 322k
Sample Encoding: MPEG audio (layer I, II or III)
Comments :
Title=Skelm
Artist=Vermiculum
Album=Penumbra
Tracknumber=3
Year=2019-12-02
Genre=Metal
Discnumber=1



Register


Go to the top of the page
  Insert nick Quick quote
+Quote Post
 
Start new topic
Replies (1 - 1)
post Dec 3 2019, 10:14:27
Post #2

my church is black
********
Group: Металариец
Posts: 898
Releases: 3
On Forums: 2 years 6 months
Thanks: 546 time(s)
Cape Verde


Записано плохо, музыка никакая.


Thanks:
(1) vovenom,
Go to the top of the page
  Insert nick Quick quote
+Quote Post

Reply to this topicStart new topic
1 User(s) are reading this topic (1 Guests and 0 Anonymous Users)
0 Members:

 



- Lo-Fi Version Support form
Copyrights and abuse reports form
Time is now: 11th December 2019 - 03:40:12