Welcome Guest ( Log In | Register )

> Releases Upload / Добавление релизов

Добавить релиз тут / Click here to add release
Рекомендованные обменники / Recommended file shares

 
Reply to this topicStart new topic
> March Of Echoes - Horrors Of The Soul (2019), Dark/Death/Doom Metal
post Dec 2 2019, 14:32:29
Post #1

Правь статус, ####!111
**************
Group: Металариец
Posts: 19,812
Releases: 13428
From: Г.Харьков
On Forums: 7 years 7 months
Thanks: 232477 time(s)
Unknown


(IMG:http://metalarea.org/images/audiocovers/2019_Dec/acov_tid331075_thumb.jpg)

*Artist: March Of Echoes
*Album: Horrors Of The Soul
*Year: 2019
*Genre: Dark/Death/Doom Metal
*Country: United States (IMG:http://metalarea.org/forum/style_images/flags/United%20States.png)
*Format: mp3@CBR320kbps
*Size: 76MB

Tracklist:
1. Shedding Faces 04:09
2. Human Refuse 03:16
3. Suffering of Virtue 03:46
4. Exposed 04:11
5. The Red Apocalypse 04:45
6. Mass Extinction Cycle 04:09
7. The Succubus 04:21
8. Cold 04:15
******************************
Total playing time: 32:52


Preview 2

Technical info
(IMG:http://metalarea.org/images/spectrogram/2019_Dec/229cb166bff4de50263e3b7da4940cc7.png)
Input File: 04 - Exposed.mp3
Channels : 2
Sample Rate : 44100
Precision : 16-bit
Duration : 00:04:11.60 = 11095516 samples = 18869.9 CDDA sectors
File Size : 10.2M
Bit Rate : 323k
Sample Encoding: MPEG audio (layer I, II or III)
Comments :
Title=Exposed
Artist=March of Echoes
Album=Horrors of the Soul
Tracknumber=4
Year=2019-05-01
Discnumber=1



Register


Go to the top of the page
  Insert nick Quick quote
+Quote Post

Reply to this topicStart new topic
1 User(s) are reading this topic (1 Guests and 0 Anonymous Users)
0 Members:

 



- Lo-Fi Version Support form
Copyrights and abuse reports form
Time is now: 10th December 2019 - 12:35:43