Welcome Guest ( Log In | Register )

> 

Здесь релизы с живыми прямыми ссылками на lossless

> Miscarriagicidal Ejaculating Upheaval - Eternally Cursed Flesh [demo] (2019), Black/Death Metal
post Dec 2 2019, 14:53:35
Post #1

Serial Uploader
Group Icon
Group: V.I.P
Posts: 36,589
Releases: 34778
From: Lithuania
On Forums: 11 years 6 months
Thanks: 407273 time(s)
Lithuania


(IMG:https://metalarea.org/images/audiocovers/2019_Dec/acov_tid331076_thumb.png)

*Artist: Miscarriagicidal Ejaculating Upheaval
*Album: Eternally Cursed Flesh [demo]
*Year: 2019
*Genre: Black/Death Metal
*Country: Mexico (IMG:https://metalarea.org/forum/style_images/flags/Mexico.png)
*Format: mp3@CBR320kbps
*Size: 14MB

Tracklist:
01. Predatory Revenge 02:02
02. Death Interruption 02:40
03. Morbid Repulsion 01:27
******************************
Total playing time: 6:09



(IMG:https://metalarea.org/images/youtube.png)

Technical info
(IMG:https://metalarea.org/images/spectrogram/2019_Dec/e8cc41f3fc2b792060bcc4614c992d33.png)
Input File: 03. Morbid Repulsion.mp3
Channels : 2
Sample Rate : 44100
Precision : 16-bit
Duration : 00:01:27.85 = 3874361 samples = 6589.05 CDDA sectors
File Size : 3.63M
Bit Rate : 331k
Sample Encoding: MPEG audio (layer I, II or III)
Comments :
Title=Morbid Repulsion
Artist=Miscarriagicidal Ejaculating Upheaval
Album=Eternally Cursed Flesh
Tracknumber=3
Year=2019



Register

Register


Go to the top of the page
  Insert nick Quick quote
+Quote Post
 
Start new topic
Replies (1 - 1)
post Dec 3 2019, 19:16:42
Post #2

=(
Group Icon
Group: Moderation team
Posts: 6,382
Releases: 2059
On Forums: 13 years 3 months
Thanks: 63982 time(s)
Saudi Arabia


Added links by necroscum
Go to the top of the page
  Insert nick Quick quote
+Quote Post

Reply to this topicStart new topic
1 User(s) are reading this topic (1 Guests and 0 Anonymous Users)
0 Members:

 



- Lo-Fi Version Support form
Copyrights and abuse reports form
Time is now: 10th December 2019 - 11:35:37