Welcome Guest ( Log In | Register )

> Releases Upload / Добавление релизов

Добавить релиз тут / Click here to add release
Рекомендованные обменники / Recommended file shares

 
Reply to this topicStart new topic
> Munetaka Higuchi - Free World Ii (2012), Heavy Metal
post Dec 2 2019, 14:55:50
Post #1

Cultist
**************
Group: Металариец
Posts: 4,219
Releases: 1330
From: Koenigsberg
On Forums: 12 years 11 months
Thanks: 8441 time(s)
Russian Federation


(IMG:https://metalarea.org/images/audiocovers/2019_Dec/acov_tid331077_thumb.jpg)

*Artist: Munetaka Higuchi
*Album: Free World Ii
*Year: 2012
*Genre: Heavy Metal
*Country: Japan (IMG:https://metalarea.org/forum/style_images/flags/Japan.png)
*Format: mp3@CBR320kbps
*Size: 122MB

Tracklist:
1. Macro Media 2 05:36 instrumental
2. Macrocosm 05:21 instrumental
3. Daniel's 7 04:26 instrumental
4. Halo ⇔ Hello 04:10 instrumental
5. M6 04:34 instrumental
6. Mu Rock 02:17 instrumental
7. Into the Ocean 04:22
8. Zero 04:20
******************************
Total playing time: 35:06

Technical info
(IMG:https://metalarea.org/images/spectrogram/2019_Dec/3ad62f53a577d3410a534bbbf15767bb.png)
Input File: 02 - Macrocosm.mp3
Channels : 2
Sample Rate : 44100
Precision : 16-bit
Duration : 00:05:21.30 = 14169330 samples = 24097.5 CDDA sectors
File Size : 12.9M
Bit Rate : 320k
Sample Encoding: MPEG audio (layer I, II or III)
Comments :
Title=Macrocosm
Artist=Munetaka Higuchi
Album=Free World II
Tracknumber=2
Year=2012
Genre=Heavy Metal



Register


Go to the top of the page
  Insert nick Quick quote
+Quote Post

Reply to this topicStart new topic
1 User(s) are reading this topic (1 Guests and 0 Anonymous Users)
0 Members:

 



- Lo-Fi Version Support form
Copyrights and abuse reports form
Time is now: 11th December 2019 - 03:39:13