Welcome Guest ( Log In | Register )

> Releases Upload / Добавление релизов

Добавить релиз тут / Click here to add release
Рекомендованные обменники / Recommended file shares

 
Reply to this topicStart new topic
> Miscarriagicidal Ejaculating Upheaval - Thick Anal Leaching [demo] (2019), Death Metal/Goregrind
post Dec 2 2019, 15:01:40
Post #1

Serial Uploader
Group Icon
Group: V.I.P
Posts: 36,589
Releases: 34778
From: Lithuania
On Forums: 11 years 6 months
Thanks: 407275 time(s)
Lithuania


(IMG:https://metalarea.org/images/audiocovers/2019_Dec/acov_tid331078_thumb.png)

*Artist: Miscarriagicidal Ejaculating Upheaval
*Album: Thick Anal Leaching [demo]
*Year: 2019
*Genre: Death Metal/Goregrind
*Country: Mexico (IMG:https://metalarea.org/forum/style_images/flags/Mexico.png)
*Format: mp3@CBR320kbps
*Size: 20MB

Tracklist:
01. Post Mortem Ileocaecal Valve Relaxation 01:22
02. Anal Orgasm Through Swollen Hemorrhoids Fingering 01:45
03. Mangy Anus Itch 01:45
04. Festering Penis Covered In Digested Sebum Stained Rectal Tissue Mucus Zoophilic Felation 00:49
05. Slimy Defecation Of Parasitic Worms 02:32
******************************
Total playing time: 8:13




Technical info
(IMG:https://metalarea.org/images/spectrogram/2019_Dec/22e4d9300bccf8ffc603f16d3c9601a2.png)
Input File: 02. Anal Orgasm Through Swollen Hemorrhoids Fingering.mp3
Channels : 2
Sample Rate : 44100
Precision : 16-bit
Duration : 00:01:45.65 = 4658945 samples = 7923.38 CDDA sectors
File Size : 4.54M
Bit Rate : 344k
Sample Encoding: MPEG audio (layer I, II or III)
Comments :
Title=Anal Orgasm Through Swollen Hemorrhoids Fingering
Artist=Miscarriagicidal Ejaculating Upheaval
Album=Thick Anal Sebum Leaching
Tracknumber=2
Year=2019



Register


Thanks:
Go to the top of the page
  Insert nick Quick quote
+Quote Post

Reply to this topicStart new topic
1 User(s) are reading this topic (1 Guests and 0 Anonymous Users)
0 Members:

 



- Lo-Fi Version Support form
Copyrights and abuse reports form
Time is now: 10th December 2019 - 11:49:43