Welcome Guest ( Log In | Register )

> Releases Upload / Добавление релизов

Добавить релиз тут / Click here to add release
Рекомендованные обменники / Recommended file shares

 
Reply to this topicStart new topic
> Contrive - The Internal Dialogue (2010), Groove Metal/Metalcore
post Dec 2 2019, 15:04:59
Post #1

Cultist
**************
Group: Металариец
Posts: 4,210
Releases: 1330
From: Koenigsberg
On Forums: 12 years 11 months
Thanks: 8439 time(s)
Russian Federation


(IMG:https://metalarea.org/images/audiocovers/2019_Dec/acov_tid331079_thumb.jpg)

*Artist: Contrive
*Album: The Internal Dialogue
*Year: 2010
*Genre: Groove Metal/Metalcore
*Country: Australia (IMG:https://metalarea.org/forum/style_images/flags/Australia.png)
*Format: mp3@CBR320kbps
*Size: 156MB

Tracklist:
1. Is This the Way? 05:24
2. Both Sides All Lies 04:00
3. This Time Last Week 04:05
4. Spirits Alive 06:03
5. Hope 06:38
6. Confusions Way 05:23
7. The Internal Dialogue 06:13
8. Lessening Life 05:08
******************************
Total playing time: 42:54

Technical info
(IMG:https://metalarea.org/images/spectrogram/2019_Dec/56fe1c9a320f0306e77a193d1cd96d31.png)
Input File: 05 - Hope.mp3
Channels : 2
Sample Rate : 44100
Precision : 16-bit
Duration : 00:06:38.92 = 17592152 samples = 29918.6 CDDA sectors
File Size : 16.0M
Bit Rate : 320k
Sample Encoding: MPEG audio (layer I, II or III)
Comments :
Title=Hope
Artist=Contrive
Album=The Internal Dialogue
Tracknumber=5
Year=2010
Genre=Groove Metal/Metalcore



Register


Thanks:
Go to the top of the page
  Insert nick Quick quote
+Quote Post

Reply to this topicStart new topic
1 User(s) are reading this topic (1 Guests and 0 Anonymous Users)
0 Members:

 



- Lo-Fi Version Support form
Copyrights and abuse reports form
Time is now: 10th December 2019 - 11:14:01