Welcome Guest ( Log In | Register )

> Releases Upload / Добавление релизов

Добавить релиз тут / Click here to add release
Рекомендованные обменники / Recommended file shares

 
Reply to this topicStart new topic
> Perky Macabre - Quivering Specimens [ep] (2019), Grindcore (D122)
post Dec 2 2019, 15:15:17
Post #1

Serial Uploader
Group Icon
Group: V.I.P
Posts: 36,589
Releases: 34778
From: Lithuania
On Forums: 11 years 6 months
Thanks: 407273 time(s)
Lithuania


(IMG:https://metalarea.org/images/audiocovers/2019_Dec/acov_tid331080_thumb.jpg)

*Artist: Perky Macabre
*Album: Quivering Specimens [ep]
*Year: 2019
*Genre: Grindcore
*Country: United States (IMG:https://metalarea.org/forum/style_images/flags/United%20States.png)
*Format: mp3@CBR320kbps
*Size: 8MB

Tracklist:
01. Putrefied Erections 00:13
02. Malleable Stump Fuck 00:16
03. Cadaver Pissmops 00:27
04. Hacksaw Fellatio 00:12
05. Mortuary Hallucinations 00:28
06. Menstrual Confections 00:27
******************************
Total playing time: 2:03



Technical info
(IMG:https://metalarea.org/images/spectrogram/2019_Dec/b55d4b4896a7d972f8e492c83a9d37ce.png)
Input File: 02. Malleable Stump Fuck.mp3
Channels : 2
Sample Rate : 44100
Precision : 16-bit
Duration : 00:00:17.06 = 752258 samples = 1279.35 CDDA sectors
File Size : 813k
Bit Rate : 381k
Sample Encoding: MPEG audio (layer I, II or III)
Comments :
Title=Malleable Stump Fuck
Artist=Perky Macabre
Album=Quivering Specimens
Tracknumber=2
Year=2019



Register


Thanks:
Go to the top of the page
  Insert nick Quick quote
+Quote Post

Reply to this topicStart new topic
1 User(s) are reading this topic (1 Guests and 0 Anonymous Users)
0 Members:

 



- Lo-Fi Version Support form
Copyrights and abuse reports form
Time is now: 10th December 2019 - 11:17:59