Welcome Guest ( Log In | Register )

> Releases Upload / Добавление релизов

Добавить релиз тут / Click here to add release
Рекомендованные обменники / Recommended file shares

 
Reply to this topicStart new topic
> Perky Macabre - Sores In The Multiverse [ep] (2019), Grindcore (D122)
post Dec 2 2019, 15:22:19
Post #1

Serial Uploader
Group Icon
Group: V.I.P
Posts: 36,592
Releases: 34781
From: Lithuania
On Forums: 11 years 6 months
Thanks: 407312 time(s)
Lithuania


(IMG:https://metalarea.org/images/audiocovers/2019_Dec/acov_tid331081_thumb.png)

*Artist: Perky Macabre
*Album: Sores In The Multiverse [ep]
*Year: 2019
*Genre: Grindcore
*Country: United States (IMG:https://metalarea.org/forum/style_images/flags/United%20States.png)
*Format: mp3@CBR320kbps
*Size: 5MB

Tracklist:
01. Beheaded Mannequin 00:17
02. Datura 00:19
03. Axungia Hominis 00:12
04. Inarticulated Flesh 00:14
05. XoXo 00:13
06. Plucked/Ravaged 00:05
******************************
Total playing time: 1:20



Technical info
(IMG:https://metalarea.org/images/spectrogram/2019_Dec/40c6749a06e9a0c8ebbe8d0cc5d9664a.png)
Input File: 02. Datura.mp3
Channels : 2
Sample Rate : 44100
Precision : 16-bit
Duration : 00:00:19.96 = 880148 samples = 1496.85 CDDA sectors
File Size : 859k
Bit Rate : 344k
Sample Encoding: MPEG audio (layer I, II or III)
Comments :
Title=Datura
Artist=Perky Macabre
Album=Sores In The Multiverse
Tracknumber=2
Year=2019



Register


Thanks:
Go to the top of the page
  Insert nick Quick quote
+Quote Post

Reply to this topicStart new topic
1 User(s) are reading this topic (1 Guests and 0 Anonymous Users)
0 Members:

 



- Lo-Fi Version Support form
Copyrights and abuse reports form
Time is now: 11th December 2019 - 05:04:51