Welcome Guest ( Log In | Register )

> Releases Upload / Добавление релизов

Добавить релиз тут / Click here to add release
Рекомендованные обменники / Recommended file shares

> Perky Macabre - Putrid Blood Fiend [ep] (2019), Grindcore (D122)
post Dec 2 2019, 15:29:17
Post #1

Serial Uploader
Group Icon
Group: V.I.P
Posts: 36,589
Releases: 34778
From: Lithuania
On Forums: 11 years 6 months
Thanks: 407273 time(s)
Lithuania


(IMG:https://metalarea.org/images/audiocovers/2019_Dec/acov_tid331082_thumb.png)

*Artist: Perky Macabre
*Album: Putrid Blood Fiend [ep]
*Year: 2019
*Genre: Grindcore
*Country: United States (IMG:https://metalarea.org/forum/style_images/flags/United%20States.png)
*Format: mp3@CBR320kbps
*Size: 5MB

Tracklist:
01. Le Belch 00:07
02. Curb Stomp 00:13
03. Smoke 00:13
04. Toxic Drainage 00:07
05. Carbonated Blood 00:31
******************************
Total playing time: 1:11



Technical info
(IMG:https://metalarea.org/images/spectrogram/2019_Dec/765223df6af3dd56ca774bd9f8cc207e.png)
Input File: 02. Curb Stomp.mp3
Channels : 2
Sample Rate : 44100
Precision : 16-bit
Duration : 00:00:13.85 = 610565 samples = 1038.38 CDDA sectors
File Size : 648k
Bit Rate : 374k
Sample Encoding: MPEG audio (layer I, II or III)
Comments :
Title=Curb Stomp
Artist=Perky Macabre
Album=Putrid Blood Fiend
Tracknumber=2
Year=2019



Register


Thanks:
Go to the top of the page
  Insert nick Quick quote
+Quote Post
 
Start new topic
Replies (1 - 1)
post Dec 3 2019, 16:21:06
Post #2

Правь статус, ####!111
**************
Group: Металариец
Posts: 44,506
Releases: 688
On Forums: 10 years 6 months
Thanks: 35839 time(s)
Russian Federation


Доколе? (IMG:style_emoticons/default/1488.gif)
Go to the top of the page
  Insert nick Quick quote
+Quote Post

Reply to this topicStart new topic
1 User(s) are reading this topic (1 Guests and 0 Anonymous Users)
0 Members:

 



- Lo-Fi Version Support form
Copyrights and abuse reports form
Time is now: 10th December 2019 - 11:31:48