Welcome Guest ( Log In | Register )

> Devilpact - Θεοφάνια (2019), Black Metal
post Dec 2 2019, 17:58:14
Post #1

Правь статус, ####!111
**************
Group: Металариец
Posts: 2,023
Releases: 1601
From: Praha
On Forums: 6 years 3 months
Thanks: 40914 time(s)
Czech Republic


(IMG:http://metalarea.org/images/audiocovers/2019_Dec/acov_tid331085_thumb.jpg)

*Artist: Devilpact
*Album: Θεοφάνια
*Year: 2019
*Genre: Black Metal
*Country: Russian Federation (IMG:http://metalarea.org/forum/style_images/flags/Russian%20Federation.png)
*Format: mp3@CBR320kbps
*Size: 133MB

Tracklist:
1. Пасть Забвения 07:10
2. Ведьмин Круг 05:48
3. Сульфур 04:39
4. Оковы Праведников - Плети Искушения 04:39
5. Повешенный 05:51
6. Азазель 07:51
7. Дьявольский Пакт 07:46
8. Врата Милосердия 06:33
9. שְׁאוֹל 07:01
******************************
Total playing time: 57:18



Extended info
Temple Of Morbid Sound - ХБЗ005


Technical info
(IMG:http://metalarea.org/images/spectrogram/2019_Dec/4e384055935dd707ffacdd53c0d3387f.png)
Input File: 02. Ведьмин Круг.mp3
Channels : 2
Sample Rate : 44100
Precision : 16-bit
Duration : 00:05:48.88 = 15385784 samples = 26166.3 CDDA sectors
File Size : 14.0M
Bit Rate : 322k
Sample Encoding: MPEG audio (layer I, II or III)
Comments :
Title=Ведьмин Круг
Artist=Devilpact
Album=Θεοφάνια
Tracknumber=02/09
Year=2019
Genre=Black Metal



Register


Go to the top of the page
  Insert nick Quick quote
+Quote Post
 
Start new topic
Replies (1 - 4)
post Dec 2 2019, 20:36:06
Post #2

While Waiting the Worms
**********
Group: Металариец
Posts: 1,033
Releases: 0
On Forums: 6 years 6 months
Thanks: 1450 time(s)
Unknown


Стафф сродни работам Ulvdalir - вполне профессиональный, но без искорки.
Прослушал половину на бандкампе - совершенно не вызывает интереса.


Thanks:
(1) Brann,
Go to the top of the page
  Insert nick Quick quote
+Quote Post
post Dec 2 2019, 23:13:36
Post #3

Trickster
Group Icon
Group: Moderation team
Posts: 3,910
Releases: 316
On Forums: 9 years 5 months
Thanks: 11933 time(s)
Russian Federation


Лично мне понравилось. Пока все, что выходило под эгидой Храма Больного Звука — очень хорошо
Go to the top of the page
  Insert nick Quick quote
+Quote Post
post Dec 3 2019, 14:15:24
Post #4

Два Литра
**
Group: Завсегдатай
Posts: 113
Releases: 0
From: Isla de Margarita, Venezuela
On Forums: 1 year 6 months
Thanks: 10 time(s)
Venezuela


"Download limit exceeded. You can save the file to Yandex.Disk and download it from ther"

Mirror please
Go to the top of the page
  Insert nick Quick quote
+Quote Post
post Dec 4 2019, 11:43:29
Post #5

Group: Подсевший
Posts: 18
Releases: 0
On Forums: 8 years 2 months
Thanks: 28 time(s)
Unknown


QUOTE(metaljosue @ Dec 3 2019, 14:15:24) *
"Download limit exceeded. You can save the file to Yandex.Disk and download it from ther"

Mirror please


Is that hard to create an account and fix your own problems?
Go to the top of the page
  Insert nick Quick quote
+Quote Post

Reply to this topicStart new topic
1 User(s) are reading this topic (1 Guests and 0 Anonymous Users)
0 Members:

 



- Lo-Fi Version Support form
Copyrights and abuse reports form
Time is now: 14th July 2020 - 06:41:10