Welcome Guest ( Log In | Register )

> Releases Upload / Добавление релизов

Добавить релиз тут / Click here to add release
Рекомендованные обменники / Recommended file shares

> Repent - Condemned To Fail (2019), Thrash Metal
post Dec 2 2019, 22:37:16
Post #1

Правь статус, ####!111
**************
Group: Металариец
Posts: 19,818
Releases: 13447
From: Г.Харьков
On Forums: 7 years 7 months
Thanks: 232596 time(s)
Unknown


(IMG:https://metalarea.org/images/audiocovers/2019_Dec/acov_tid331090_thumb.jpg)

*Artist: Repent
*Album: Condemned To Fail
*Year: 2019
*Genre: Thrash Metal
*Country: Germany (IMG:https://metalarea.org/forum/style_images/flags/Germany.png)
*Format: mp3@CBR320kbps
*Size: 99MB

Tracklist:
1. Pride of Creation 04:02
2. Progress Paradox 05:02
3. Theo-crazy 04:49
4. Hypocrite's Tears 04:46
5. Empires of Evil 04:04
6. Mutilation Ritual 04:39
7. Scientific Ideals 05:18
8. Wimpreaper 04:24
9. The Worst Is Yet to Come 03:51
******************************
Total playing time: 40:55




Extended info
Philip Rath Guitars
Martin "Heusi" Heusinger Guitars
Jürgen "Eumel" Aumann Vocals (lead)
Andy Brandscher Drums
Alexander Raab Bass


Technical info
(IMG:https://metalarea.org/images/spectrogram/2019_Dec/50a46c06c415cda38d58eea1d05a6109.png)
Input File: 04 Hypocrite´s Tears.mp3
Channels : 2
Sample Rate : 44100
Precision : 16-bit
Duration : 00:04:44.81 = 12559901 samples = 21360.4 CDDA sectors
File Size : 12.0M
Bit Rate : 338k
Sample Encoding: MPEG audio (layer I, II or III)
Comments :
Title=Hypocrite´s Tears
Artist=Repent
Album=Condemned To Fail
Tracknumber=4
Year=2019
Genre=Thrash Metal



Register


Go to the top of the page
  Insert nick Quick quote
+Quote Post
 
Start new topic
Replies (1 - 2)
post Dec 3 2019, 04:26:55
Post #2

Правь статус, ####!111
**************
Group: Металариец
Posts: 19,818
Releases: 13447
From: Г.Харьков
On Forums: 7 years 7 months
Thanks: 232596 time(s)
Unknown


FLAC (Tracks) 299 mb
Register


Go to the top of the page
  Insert nick Quick quote
+Quote Post
post Dec 4 2019, 15:24:31
Post #3

Шесть Литров
******
Group: Металариец
Posts: 556
Releases: 0
On Forums: 10 years 5 months
Thanks: 129 time(s)
Ukraine


одним словом НЕМЦЫ!!!!


Thanks:
Go to the top of the page
  Insert nick Quick quote
+Quote Post

Reply to this topicStart new topic
2 User(s) are reading this topic (2 Guests and 0 Anonymous Users)
0 Members:

 



- Lo-Fi Version Support form
Copyrights and abuse reports form
Time is now: 11th December 2019 - 04:11:38