Welcome Guest ( Log In | Register )

 
Reply to this topicStart new topic
> Leftmuenang - Illusion [compilation] (2016), Folk/Black Metal
post Dec 2 2019, 22:43:46
Post #1

Group: Подсевший
Posts: 37
Releases: 9
From: Якутия
On Forums: 11 years 6 months
Thanks: 95 time(s)
Russian Federation


(IMG:https://metalarea.org/images/audiocovers/2019_Dec/acov_tid331091_thumb.jpg)

*Artist: Leftmuenang
*Album: Illusion [compilation]
*Year: 2016
*Genre: Folk/Black Metal
*Country: Thailand (IMG:https://metalarea.org/forum/style_images/flags/Thailand.png)
*Format: mp3@CBR320kbps
*Size: 158MB

Tracklist:
1. Plangpheekraugn 08:01
2. Priamprang 10:16
3. Sobnangloi 10:38
4. Pryrambanna 12:33
5. Thungpheepan 11:29
6. Vile Words, Evoking 9:40
7. Plesure in Cruelty 07:17
******************************
Total playing time: 1:09:54

(IMG:https://metalarea.org/images/youtube.png)

Technical info
(IMG:https://metalarea.org/images/spectrogram/2019_Dec/79b2d99da5d7e892dede28ec513728ad.png)
Input File: 07 - Plesure in Cruelty.mp3
Channels : 2
Sample Rate : 44100
Precision : 16-bit
Duration : 00:07:17.05 = 19273993 samples = 32778.9 CDDA sectors
File Size : 17.5M
Bit Rate : 320k
Sample Encoding: MPEG audio (layer I, II or III)



Register


Go to the top of the page
  Insert nick Quick quote
+Quote Post

Reply to this topicStart new topic
1 User(s) are reading this topic (1 Guests and 0 Anonymous Users)
0 Members:

 



- Lo-Fi Version Support form
Copyrights and abuse reports form
Time is now: 10th December 2019 - 11:13:54