Welcome Guest ( Log In | Register )

> Releases Upload / Добавление релизов

Добавить релиз тут / Click here to add release
Рекомендованные обменники / Recommended file shares

> Gam - Crowned And Reborn (2019), Black/Death Metal
post Dec 2 2019, 22:49:51
Post #1

Правь статус, ####!111
**************
Group: Металариец
Posts: 19,818
Releases: 13447
From: Г.Харьков
On Forums: 7 years 7 months
Thanks: 232596 time(s)
Unknown


(IMG:https://metalarea.org/images/audiocovers/2019_Dec/acov_tid331092_thumb.jpg)

*Artist: Gam
*Album: Crowned And Reborn
*Year: 2019
*Genre: Black/Death Metal
*Country: Sweden (IMG:https://metalarea.org/forum/style_images/flags/Sweden.png)
*Format: mp3@CBR320kbps
*Size: 61MB

Tracklist:
1. Feed the Flames 03:47
2. An Orgy of Flesh 05:56
3. Death from Above 05:04
4. Willing a Holocaust unto Mankind 03:43
5. Stygian She-Wolf 05:00
6. Bless the Mortar 05:02
******************************
Total playing time: 28:32



Technical info
(IMG:https://metalarea.org/images/spectrogram/2019_Dec/ffdc99d839ff6b140dc8e7c9c5ce2acb.png)
Input File: 03. Death From Above.mp3
Channels : 2
Sample Rate : 44100
Precision : 16-bit
Duration : 00:05:04.19 = 13414735 samples = 22814.2 CDDA sectors
File Size : 12.3M
Bit Rate : 323k
Sample Encoding: MPEG audio (layer I, II or III)
Comments :
Title=Death From Above
Artist=Gam
Album=Crowned and Reborn
Tracknumber=3/6
Year=2019
Discnumber=1/1



Register


Go to the top of the page
  Insert nick Quick quote
+Quote Post
 
Start new topic
Replies (1 - 1)
post Dec 3 2019, 22:16:51
Post #2

Crush The Enemies
**************
Group: Металариец
Posts: 4,260
Releases: 0
From: Moscow
On Forums: 10 years 3 months
Thanks: 2497 time(s)
Russian Federation



Языки ПЛАМЕНИ на плоти поверженных и раскаявшихся выжигают узоры страдания и смерти,освобождая их от гнетущего существования под знаком ГОСПОДНЕГО благославения,даруя им вселенскую свободу от оков божественного МИРОЗДАНИЯ! (IMG:style_emoticons/default/true_black.gif) (IMG:style_emoticons/default/true_black.gif) (IMG:style_emoticons/default/true_black.gif)

P.S Инфернальный Old School BLACKENED DEATH с мастерингом Dan Swanö (IMG:style_emoticons/default/9.gif)


Thanks:
Go to the top of the page
  Insert nick Quick quote
+Quote Post

Reply to this topicStart new topic
1 User(s) are reading this topic (1 Guests and 0 Anonymous Users)
0 Members:

 



- Lo-Fi Version Support form
Copyrights and abuse reports form
Time is now: 11th December 2019 - 04:27:06