Welcome Guest ( Log In | Register )

> Releases Upload / Добавление релизов

Добавить релиз тут / Click here to add release
Рекомендованные обменники / Recommended file shares

> Ghusa - Öswedeme (2017), Old School Death Metal
post Dec 2 2019, 23:20:12
Post #1

Правь статус, ####!111
**************
Group: Металариец
Posts: 19,812
Releases: 13428
From: Г.Харьков
On Forums: 7 years 7 months
Thanks: 232471 time(s)
Unknown


(IMG:https://metalarea.org/images/audiocovers/2019_Dec/acov_tid331093_thumb.jpg)

*Artist: Ghusa
*Album: Öswedeme
*Year: 2017
*Genre: Old School Death Metal
*Country: France (IMG:https://metalarea.org/forum/style_images/flags/France.png)
*Format: mp3@CBR320kbps
*Size: 93MB

Tracklist:
1. 28 Days Later
2. H
3. Project 9
4. Death or Glory
5. Epitaph
6. Sickening
7. In Gods We Fear
8. Carve Up
9. Immortal
10. Flying in a Dark Dream
******************************
Total playing time: 40:29



Extended info
L. Chuck D. Vocals
Vincent Bigaillon Guitars (lead)
Romuald Potel Guitars (rhythm)
Heimdall Bass
Pyromancer Drums



Technical info
(IMG:https://metalarea.org/images/spectrogram/2019_Dec/3d139bfd41c99357959fbcee7fd6c1b4.png)
Input File: 04. Death or Glory.mp3
Channels : 2
Sample Rate : 44100
Precision : 16-bit
Duration : 00:04:13.06 = 11159726 samples = 18979.1 CDDA sectors
File Size : 10.5M
Bit Rate : 333k
Sample Encoding: MPEG audio (layer I, II or III)
Comments :
Title=Death or Glory
Artist=ghUSa
Album=Öswedeme (320)
Tracknumber=04
Year=2017
Genre=Metal



Register


Go to the top of the page
  Insert nick Quick quote
+Quote Post
 
Start new topic
Replies (1 - 4)
post Dec 3 2019, 18:56:08
Post #2

Два Литра
**
Group: Завсегдатай
Posts: 122
Releases: 0
On Forums: 3 years 3 months
Thanks: 11 time(s)
Unknown


(IMG:style_emoticons/default/m1234.gif)


Thanks:
Go to the top of the page
  Insert nick Quick quote
+Quote Post
post Dec 5 2019, 00:19:07
Post #3

Правь статус, ####!111
**************
Group: Металариец
Posts: 19,812
Releases: 13428
From: Г.Харьков
On Forums: 7 years 7 months
Thanks: 232471 time(s)
Unknown


FLAC (Tracks) 314 mb
Register


Go to the top of the page
  Insert nick Quick quote
+Quote Post
post Dec 5 2019, 02:38:06
Post #4

Русский
*****
Group: Металариец
Posts: 404
Releases: 0
From: Москва
On Forums: 13 years 3 months
Thanks: 174 time(s)
Russian Federation


1. 28 Days Later

кавер забубенили (IMG:style_emoticons/default/crazy.gif)
Go to the top of the page
  Insert nick Quick quote
+Quote Post
post Dec 5 2019, 19:49:34
Post #5

Литр
*
Group: Подсевший
Posts: 82
Releases: 0
On Forums: 11 years 6 months
Thanks: 12 time(s)
Russian Federation


Вот простенько но со вкусом и солячки и мотивчики хорошие, твёрдая четверка!!!!!!!
Go to the top of the page
  Insert nick Quick quote
+Quote Post

Reply to this topicStart new topic
1 User(s) are reading this topic (1 Guests and 0 Anonymous Users)
0 Members:

 



- Lo-Fi Version Support form
Copyrights and abuse reports form
Time is now: 10th December 2019 - 11:14:13