Welcome Guest ( Log In | Register )

> Releases Upload / Добавление релизов

Добавить релиз тут / Click here to add release
Рекомендованные обменники / Recommended file shares

> N-Hash - Познание (2019), Progressive Metal/Djent
post Dec 2 2019, 23:51:03
Post #1

Правь статус, ####!111
**************
Group: Металариец
Posts: 19,812
Releases: 13428
From: Г.Харьков
On Forums: 7 years 7 months
Thanks: 232475 time(s)
Unknown


(IMG:https://metalarea.org/images/audiocovers/2019_Dec/acov_tid331094_thumb.jpg)

*Artist: N-Hash
*Album: Познание
*Year: 2019
*Genre: Progressive Metal/Djent
*Country: Russian Federation (IMG:https://metalarea.org/forum/style_images/flags/Russian%20Federation.png)
*Format: mp3@CBR320kbps
*Size: 80MB

Tracklist:
1. За гранью
2. Танцующая
3. Петли
4. Присутствие
5. Господство
6. Иглы Времени
7. Расщепление
8. Проницание
9. Сияние
******************************
Total playing time: 34:38

(IMG:https://metalarea.org/images/youtube.png)
Preview 2

Technical info
(IMG:https://metalarea.org/images/spectrogram/2019_Dec/7b32254e3f1173f75ca48cee27e4c6a1.png)
Input File: 03 - Петли.mp3
Channels : 2
Sample Rate : 44100
Precision : 16-bit
Duration : 00:05:37.08 = 14865052 samples = 25280.7 CDDA sectors
File Size : 13.6M
Bit Rate : 323k
Sample Encoding: MPEG audio (layer I, II or III)
Comments :
Title=Петли
Artist=N-Hash
Album=Познание
Tracknumber=3
Year=2019-12-01
Genre=Rock; Hard Rock; Metal
Discnumber=1



Register


Go to the top of the page
  Insert nick Quick quote
+Quote Post
 
Start new topic
Replies (1 - 2)
post Dec 3 2019, 09:54:10
Post #2

тебе 29, а ты все реверсами балуешься
***********
Group: Металариец
Posts: 1,790
Releases: 4
On Forums: 11 years 4 months
Thanks: 529 time(s)
Russian Federation


Из вк:

ЦИТАТА
Друзья, целый год мы бескомпромиссно и кропотливо работали над партиями и звучанием инструментов, дабы создать фирменный звук N-HASH.


Лол, совершенно стандартный звук для 99% джентовых коллективов.
Ребята техничные (каждый участник поливает просто прекрасно, вокал и все инструменты очень вкусные), но чесгря ничего прям цепляющего не услышал.
Go to the top of the page
  Insert nick Quick quote
+Quote Post
post Dec 3 2019, 10:13:54
Post #3

Литр
*
Group: Подсевший
Posts: 91
Releases: 0
On Forums: 1 week 5 days
Thanks: 31 time(s)
Russian Federation


ЦИТАТА(Foneg @ Dec 3 2019, 13:54:10) *
стандартный звук

Это болезнь всего так называемого жанра.


Thanks:
(1) Ghostb,
Go to the top of the page
  Insert nick Quick quote
+Quote Post

Reply to this topicStart new topic
1 User(s) are reading this topic (1 Guests and 0 Anonymous Users)
0 Members:

 



- Lo-Fi Version Support form
Copyrights and abuse reports form
Time is now: 10th December 2019 - 12:09:49