Welcome Guest ( Log In | Register )

> Releases Upload / Добавление релизов

Добавить релиз тут / Click here to add release
Рекомендованные обменники / Recommended file shares

 
Reply to this topicStart new topic
> Necrophile - Awakening Those Oppressed (2017), Old School Death Metal
post Dec 3 2019, 00:47:21
Post #1

Правь статус, ####!111
**************
Group: Металариец
Posts: 19,812
Releases: 13428
From: Г.Харьков
On Forums: 7 years 7 months
Thanks: 232471 time(s)
Unknown


(IMG:https://metalarea.org/images/audiocovers/2019_Dec/acov_tid331095_thumb.jpg)

*Artist: Necrophile
*Album: Awakening Those Oppressed
*Year: 2017
*Genre: Old School Death Metal
*Country: Japan (IMG:https://metalarea.org/forum/style_images/flags/Japan.png)
*Format: mp3@CBR320kbps
*Size: 71MB

Tracklist:
1. Depravity Within 03:33
2. Desire for Asphyxiation 03:34
3. Hysteria Siberiana 04:41
4. Irrepressible Discharge 02:27
5. Awaken Ancient Storm 03:48
6. Soiled Gospel 01:42
7. Racing Time 03:26
8. Dissociation 04:29
9. Gruesome Cruelty 02:29
10. Night of the Gloomy Narcist 03:48
******************************
Total playing time: 33:57





Extended info
Takaaki Ohkuma Bass, Vocals (1987-1991, 2013-present)
See also: ex-Asphyxia, ex-Multiplex, ex-Criminal Christ
Keisuke Matsunaga Guitars, Drums (1987-1990), Drums (2013-present)
See also: ex-Messiah Death
Takashi Tanaka Drums (1991), Guitars, Vocals (2013-present)
See also: Anatomia, Transgressor, Wormridden, ex-Waco Jesus, ex-Gamvetta


Technical info
(IMG:https://metalarea.org/images/spectrogram/2019_Dec/8f5b023127897ca8c9a19c4e6b069061.png)
Input File: 03 hysteria siberiana.mp3
Channels : 2
Sample Rate : 44100
Precision : 16-bit
Duration : 00:04:41.70 = 12423014 samples = 21127.6 CDDA sectors
File Size : 11.4M
Bit Rate : 323k
Sample Encoding: MPEG audio (layer I, II or III)
Comments :
Title=Hysteria Siberiana
Artist=Necrophile
Album=Awakening Those Oppressed
Tracknumber=3
Year=2017
Genre=Death Metal



Register


Go to the top of the page
  Insert nick Quick quote
+Quote Post

Reply to this topicStart new topic
1 User(s) are reading this topic (1 Guests and 0 Anonymous Users)
0 Members:

 



- Lo-Fi Version Support form
Copyrights and abuse reports form
Time is now: 10th December 2019 - 11:14:37