Welcome Guest ( Log In | Register )

> Releases Upload / Добавление релизов

Добавить релиз тут / Click here to add release
Рекомендованные обменники / Recommended file shares

 
Reply to this topicStart new topic
> Tremor - Fragmented (2019), Progressive/Thrash Metal (D)
post Dec 3 2019, 01:47:03
Post #1

Правь статус, ####!111
**************
Group: Металариец
Posts: 19,818
Releases: 13447
From: Г.Харьков
On Forums: 7 years 7 months
Thanks: 232596 time(s)
Unknown


(IMG:https://metalarea.org/images/audiocovers/2019_Dec/acov_tid331096_thumb.jpg)

*Artist: Tremor
*Album: Fragmented
*Year: 2019
*Genre: Progressive/Thrash Metal
*Country: Trinidad and Tobago (IMG:https://metalarea.org/forum/style_images/flags/Trinidad%20and%20Tobago.png)
*Format: mp3@CBR320kbps
*Size: 91MB

Tracklist:
1. Metal Warriors 05:38
2. Darkness Descends 03:41
3. Fragmented 04:25
4. Tears of JOY 04:40
5. Drive-By 04:35
6. Ascend from Beyond 05:59
7. The Innocent Youth 02:56
8. My Dilema 03:56
9. Inner Peace 03:41
******************************
Total playing time: 39:31



Extended info
Anil Bessessar Bass, Vocals
Daniel Bessessar Drums
Terrance A. Sahatoo Guitars
Premchand Samsundar Guitars
Evan Moon Vocals
Rishi Ramoutar Vocals




Technical info
(IMG:https://metalarea.org/images/spectrogram/2019_Dec/c33f5615af41d4a0ae1f546c62dbe817.png)
Input File: 06 - Ascend from Beyond.mp3
Channels : 2
Sample Rate : 44100
Precision : 16-bit
Duration : 00:05:59.13 = 15837413 samples = 26934.4 CDDA sectors
File Size : 14.4M
Bit Rate : 321k
Sample Encoding: MPEG audio (layer I, II or III)
Comments :
Title=Ascend from Beyond
Artist=Tremor
Album=Fragmented
Tracknumber=6
Year=2019-11-29
Genre=Metal
Discnumber=1



Register


Go to the top of the page
  Insert nick Quick quote
+Quote Post

Reply to this topicStart new topic
1 User(s) are reading this topic (1 Guests and 0 Anonymous Users)
0 Members:

 



- Lo-Fi Version Support form
Copyrights and abuse reports form
Time is now: 11th December 2019 - 04:56:13