Welcome Guest ( Log In | Register )

> Releases Upload / Добавление релизов

Добавить релиз тут / Click here to add release
Рекомендованные обменники / Recommended file shares

> Morganthus - Mortal (2019), Heavy/Doom Metal
post Dec 3 2019, 02:20:20
Post #1

Правь статус, ####!111
**************
Group: Металариец
Posts: 19,812
Releases: 13428
From: Г.Харьков
On Forums: 7 years 7 months
Thanks: 232471 time(s)
Unknown


(IMG:https://metalarea.org/images/audiocovers/2019_Dec/acov_tid331097_thumb.jpg)

*Artist: Morganthus
*Album: Mortal
*Year: 2019
*Genre: Heavy/Doom Metal
*Country: United States (IMG:https://metalarea.org/forum/style_images/flags/United%20States.png)
*Format: mp3@CBR320kbps
*Size: 103MB

Tracklist:
1. Plague Bell 07:13
2. Super Science 09:45
3. Phosphorus 08:50
4. Mortal 06:10
5. Devil's Due 06:35
6. Mosquitous 06:41
******************************
Total playing time: 45:14




Extended info
Nic McKinney Bass
Dustin Ganoe Drums
Doug Miller Guitars, Vocals


Technical info
(IMG:https://metalarea.org/images/spectrogram/2019_Dec/e6f3c6ca8089983f069cf11c6f7f5f03.png)
Input File: 02 Super Science.mp3
Channels : 2
Sample Rate : 44100
Precision : 16-bit
Duration : 00:09:46.01 = 25843217 samples = 43951 CDDA sectors
File Size : 23.4M
Bit Rate : 320k
Sample Encoding: MPEG audio (layer I, II or III)
Comments :
Title=Super Science
Artist=Morganthus
Album=Mortal
Tracknumber=2
Year=2019
Genre=Heavy Metal



Register


Go to the top of the page
  Insert nick Quick quote
+Quote Post
 
Start new topic
Replies (1 - 1)
post Dec 8 2019, 19:37:24
Post #2

Group: Подсевший
Posts: 22
Releases: 0
From: indark
On Forums: 3 years 11 months
Thanks: 5 time(s)
Unknown


Интересная работа, ретро стиль в духе Black Sabbath.
Go to the top of the page
  Insert nick Quick quote
+Quote Post

Reply to this topicStart new topic
1 User(s) are reading this topic (1 Guests and 0 Anonymous Users)
0 Members:

 



- Lo-Fi Version Support form
Copyrights and abuse reports form
Time is now: 10th December 2019 - 11:23:27