Welcome Guest ( Log In | Register )

> Releases Upload / Добавление релизов

Добавить релиз тут / Click here to add release
Рекомендованные обменники / Recommended file shares

 
Reply to this topicStart new topic
> Beast Light - Beast Light (2015), Heavy/Thrash Metal
post Dec 3 2019, 02:52:47
Post #1

Правь статус, ####!111
**************
Group: Металариец
Posts: 19,812
Releases: 13428
From: Г.Харьков
On Forums: 7 years 7 months
Thanks: 232477 time(s)
Unknown


(IMG:https://metalarea.org/images/audiocovers/2019_Dec/acov_tid331098_thumb.jpg)

*Artist: Beast Light
*Album: Beast Light
*Year: 2015
*Genre: Heavy/Thrash Metal
*Country: Mexico (IMG:https://metalarea.org/forum/style_images/flags/Mexico.png)
*Format: mp3@CBR320kbps
*Size: 85MB

Tracklist:
1. Devil's Race 04:33
2. Beast Light 03:38
3. Beyond at Hell 05:25
4. El Faraón 04:59
5. Injustice 04:39
6. Lord of the Skies 04:52
7. Metal Revolution 04:44
8. Metal Dog 04:30
******************************
Total playing time: 37:20




Extended info
Gerardo Rosales Drums
Janick Younx Guitars (lead)
Fausto Mac Guitars (lead)
Cazador Vocals
Zombiie Sixx Bass



Technical info
(IMG:https://metalarea.org/images/spectrogram/2019_Dec/b3f55e53652d2568b6ea6c31a255d67a.png)
Input File: 02 - Beast Light.mp3
Channels : 2
Sample Rate : 44100
Precision : 16-bit
Duration : 00:03:19.72 = 8807520 samples = 14978.8 CDDA sectors
File Size : 8.28M
Bit Rate : 332k
Sample Encoding: MPEG audio (layer I, II or III)
Comments :
Title=Beast Light
Artist=Beast Light
Album=Beast Light
Tracknumber=2
Year=2015-11-21
Genre=Metal
Discnumber=1



Register


Go to the top of the page
  Insert nick Quick quote
+Quote Post

Reply to this topicStart new topic
1 User(s) are reading this topic (1 Guests and 0 Anonymous Users)
0 Members:

 



- Lo-Fi Version Support form
Copyrights and abuse reports form
Time is now: 10th December 2019 - 12:37:25