Welcome Guest ( Log In | Register )

> Ufrat - Global Devastation (2016), Old School Thrash Metal
post Dec 3 2019, 03:18:14
Post #1

Правь статус, ####!111
**************
Group: Металариец
Posts: 22,335
Releases: 15473
From: Г.Харьков
On Forums: 8 years 2 months
Thanks: 283068 time(s)
Unknown


(IMG:https://metalarea.org/images/audiocovers/2019_Dec/acov_tid331099_thumb.jpg)

*Artist: Ufrat
*Album: Global Devastation
*Year: 2016
*Genre: Old School Thrash Metal
*Country: Brazil (IMG:https://metalarea.org/forum/style_images/flags/Brazil.png)
*Format: mp3@CBR320kbps
*Size: 92MB

Tracklist:
1. Intro
2. The Smell of Death
3. Unceasing Torment
4. Annihilator of Minds
5. Bastard Blood
6. Confronting Death
7. Global Devastation
8. Death Row
9. Peter Killer
10. Cruel Faith
11. Social Chaos
12. Voluntary Slavery
13. Nightfear
******************************
Total playing time: 40:11



Extended info
Marcelo Bass
Ivan Drums
Alex Guitars
Caio Vocals




Technical info
(IMG:https://metalarea.org/images/spectrogram/2019_Dec/813d35ba0515d0540cd30bbce11d7bd6.png)
Input File: 06 - Confronting Death.mp3
Channels : 2
Sample Rate : 44100
Precision : 16-bit
Duration : 00:04:06.92 = 10889304 samples = 18519.2 CDDA sectors
File Size : 9.99M
Bit Rate : 324k
Sample Encoding: MPEG audio (layer I, II or III)
Comments :
Title=Confronting Death
Artist=Ufrat
Album=Global Devastation
Tracknumber=6
Year=2016-07-30
Discnumber=1



Register


Go to the top of the page
  Insert nick Quick quote
+Quote Post
 
Start new topic
Replies (1 - 5)
post Dec 3 2019, 23:01:31
Post #2

Два Литра
**
Group: Завсегдатай
Posts: 113
Releases: 0
From: Isla de Margarita, Venezuela
On Forums: 1 year 5 months
Thanks: 10 time(s)
Venezuela


Последние 5 треков повреждены (русский):

9. Peter Killer
10. Cruel Faith
11. Social Chaos
12. Voluntary Slavery
13. Nightfear

Los últimos 5 tracks están dañados (spanish):

9. Peter Killer
10. Cruel Faith
11. Social Chaos
12. Voluntary Slavery
13. Nightfear

The last 5 tracks are damaged (english):

9. Peter Killer
10. Cruel Faith
11. Social Chaos
12. Voluntary Slavery
13. Nightfear


Go to the top of the page
  Insert nick Quick quote
+Quote Post
post Dec 3 2019, 23:36:56
Post #3

Правь статус, ####!111
**************
Group: Металариец
Posts: 22,335
Releases: 15473
From: Г.Харьков
On Forums: 8 years 2 months
Thanks: 283068 time(s)
Unknown


ЦИТАТА(metaljosue @ 4th December 2019 - 00:01:31) *
Последние 5 треков повреждены (русский):

9. Peter Killer
10. Cruel Faith
11. Social Chaos
12. Voluntary Slavery
13. Nightfear

Что у тебя с этими треками не так приятель?
Go to the top of the page
  Insert nick Quick quote
+Quote Post
post Dec 4 2019, 03:47:27
Post #4

Два Литра
**
Group: Завсегдатай
Posts: 113
Releases: 0
From: Isla de Margarita, Venezuela
On Forums: 1 year 5 months
Thanks: 10 time(s)
Venezuela


они не распаковываются, они говорят, что они повреждены.

Я попробую другую "Mirror"
Go to the top of the page
  Insert nick Quick quote
+Quote Post
post Dec 4 2019, 04:22:18
Post #5

Правь статус, ####!111
**************
Group: Металариец
Posts: 22,335
Releases: 15473
From: Г.Харьков
On Forums: 8 years 2 months
Thanks: 283068 time(s)
Unknown


ЦИТАТА(metaljosue @ 4th December 2019 - 04:47:27) *
они не распаковываются, они говорят, что они повреждены.

Тебе надо обновить WIN RAR архиватор,и все будет в порядке!


Thanks:
(1) Diflock,
Go to the top of the page
  Insert nick Quick quote
+Quote Post
post Dec 7 2019, 22:16:43
Post #6

Восемь Литров
********
Group: Металариец
Posts: 834
Releases: 0
From: South Of Heaven
On Forums: 12 years 11 months
Thanks: 380 time(s)
Ukraine


Качественный материал, "заходит" сразу. (IMG:style_emoticons/default/metaler.gif) (IMG:style_emoticons/default/metaler.gif)
Релизёру (IMG:style_emoticons/default/9.gif) (IMG:style_emoticons/default/9.gif)


Thanks:
Go to the top of the page
  Insert nick Quick quote
+Quote Post

Reply to this topicStart new topic
1 User(s) are reading this topic (1 Guests and 0 Anonymous Users)
0 Members:

 



- Lo-Fi Version Support form
Copyrights and abuse reports form
Time is now: 12th July 2020 - 04:17:18