Welcome Guest ( Log In | Register )

> Releases Upload / Добавление релизов

Добавить релиз тут / Click here to add release
Рекомендованные обменники / Recommended file shares

 
Reply to this topicStart new topic
> Mara - Rök (2019), Black Metal
post Dec 3 2019, 06:32:35
Post #1

Правь статус, ####!111
**************
Group: Металариец
Posts: 19,812
Releases: 13428
From: Г.Харьков
On Forums: 7 years 7 months
Thanks: 232471 time(s)
Unknown


(IMG:https://metalarea.org/images/audiocovers/2019_Dec/acov_tid331100_thumb.jpg)

*Artist: Mara
*Album: Rök
*Year: 2019
*Genre: Black Metal
*Country: Sweden (IMG:https://metalarea.org/forum/style_images/flags/Sweden.png)
*Format: mp3@CBR320kbps
*Size: 83MB

Tracklist:
1. Bloodbound 07:28
2. RÖK 04:32
3. The Path 06:49
4. Eitr 08:49
5. Burial Mound 08:16
******************************
Total playing time: 35:54


Preview 2


Extended info
Vindsval Everything



Technical info
(IMG:https://metalarea.org/images/spectrogram/2019_Dec/543b64c6ecfd8826a386bef2b24da7f7.png)
Input File: 03. The Path.mp3
Channels : 2
Sample Rate : 44100
Precision : 16-bit
Duration : 00:06:49.50 = 18058730 samples = 30712.1 CDDA sectors
File Size : 16.6M
Bit Rate : 324k
Sample Encoding: MPEG audio (layer I, II or III)
Comments :
Title=The Path
Artist=Mara
Album=Rök
Tracknumber=3
Year=2019-12-03
Discnumber=1



Register


Go to the top of the page
  Insert nick Quick quote
+Quote Post

Reply to this topicStart new topic
1 User(s) are reading this topic (1 Guests and 0 Anonymous Users)
0 Members:

 



- Lo-Fi Version Support form
Copyrights and abuse reports form
Time is now: 10th December 2019 - 11:14:08