Welcome Guest ( Log In | Register )

> Releases Upload / Добавление релизов

Добавить релиз тут / Click here to add release
Рекомендованные обменники / Recommended file shares

> Bloody Violence - Host (2019), Technical Death Metal
post Dec 3 2019, 08:25:29
Post #1

Правь статус, ####!111
**************
Group: Металариец
Posts: 19,812
Releases: 13428
From: Г.Харьков
On Forums: 7 years 7 months
Thanks: 232475 time(s)
Unknown


(IMG:https://metalarea.org/images/audiocovers/2019_Dec/acov_tid331101_thumb.jpg)

*Artist: Bloody Violence
*Album: Host
*Year: 2019
*Genre: Technical Death Metal
*Country: Brazil (IMG:https://metalarea.org/forum/style_images/flags/Brazil.png)
*Format: mp3@CBR320kbps
*Size: 82MB

Tracklist:
01. Decompression Sickness
02. Visceral Memories
03. The White Box
04. Whispers of Anguish
05. Necessary Evil
06. Hosting the Unknown
07. Unfit Thought Processes
08. Deformed Primal Perception
******************************
Total playing time: 35:23





Extended info
Israel Savaris Bass (2013-present), Vocals (2015-present)
See also: Four Dead Passengers, The Jokke
Eduardo Polidori Drums (2013-2015, 2016-present)
See also: ex-Ankh
Igor Dornelles Guitars (2013-present), Vocals (2015-present)
See also: The Jokke


Technical info
(IMG:https://metalarea.org/images/spectrogram/2019_Dec/573264d4fbfec7dc307b7f4cf1aafbdf.png)
Input File: 04 - Whispers of Anguish.mp3
Channels : 2
Sample Rate : 44100
Precision : 16-bit
Duration : 00:06:39.70 = 17626550 samples = 29977.1 CDDA sectors
File Size : 16.1M
Bit Rate : 323k
Sample Encoding: MPEG audio (layer I, II or III)
Comments :
Title=Whispers of Anguish
Artist=Bloody Violence
Album=Host
Tracknumber=4
Year=2019-12-03
Discnumber=1



Register


Go to the top of the page
  Insert nick Quick quote
+Quote Post
 
Start new topic
Replies (1 - 1)
post Dec 6 2019, 21:57:20
Post #2

Три Литра
***
Group: Завсегдатай
Posts: 282
Releases: 0
From: Kyiv
On Forums: 7 years 7 months
Thanks: 108 time(s)
Ukraine


Необычно.
Go to the top of the page
  Insert nick Quick quote
+Quote Post

Reply to this topicStart new topic
1 User(s) are reading this topic (1 Guests and 0 Anonymous Users)
0 Members:

 



- Lo-Fi Version Support form
Copyrights and abuse reports form
Time is now: 10th December 2019 - 12:09:29