Welcome Guest ( Log In | Register )

> Releases Upload / Добавление релизов

Добавить релиз тут / Click here to add release
Рекомендованные обменники / Recommended file shares

> By Your Leave - Tales Beneath The Hunters' Moon (2019), Heavy Metal
post Dec 3 2019, 08:43:26
Post #1

Правь статус, ####!111
**************
Group: Металариец
Posts: 19,812
Releases: 13428
From: Г.Харьков
On Forums: 7 years 7 months
Thanks: 232471 time(s)
Unknown


(IMG:https://metalarea.org/images/audiocovers/2019_Dec/acov_tid331102_thumb.jpg)

*Artist: By Your Leave
*Album: Tales Beneath The Hunters' Moon
*Year: 2019
*Genre: Heavy Metal
*Country: United Kingdom (IMG:https://metalarea.org/forum/style_images/flags/United%20Kingdom.png)
*Format: mp3@CBR320kbps
*Size: 94MB

Tracklist:
1. Skyriders 05:16
2. Escape from the Dark City 03:14
3. Stand Together 04:36
4. Dreamstalker 04:51
5. God Dethroned 04:56
6. Hand of Fate 03:25
7. Hell to Pay 03:50
8. Crying Shadow 04:55
9. The Taste of Sin 05:35
******************************
Total playing time: 40:38




Extended info
The Executioner Bass
The Servator Drums
The Ambassador Guitars
The Preator Vocals




Technical info
(IMG:https://metalarea.org/images/spectrogram/2019_Dec/21db7f550592396b0d635b6927d76428.png)
Input File: 05 - God Dethroned.mp3
Channels : 2
Sample Rate : 44100
Precision : 16-bit
Duration : 00:04:56.19 = 13062067 samples = 22214.4 CDDA sectors
File Size : 12.0M
Bit Rate : 324k
Sample Encoding: MPEG audio (layer I, II or III)
Comments :
Title=God Dethroned
Artist=By Your Leave
Album=Tales Beneath The Hunters' Moon
Tracknumber=5
Year=2019-12-03
Genre=Rock; Metal
Discnumber=1



Register


Go to the top of the page
  Insert nick Quick quote
+Quote Post
 
Start new topic
Replies (1 - 2)
post Dec 3 2019, 19:50:08
Post #2

Наливай!
**************
Group: Металариец
Posts: 5,481
Releases: 27
From: Москва-Бибирево
On Forums: 11 years 8 months
Thanks: 2671 time(s)
Russian Federation


Дело Crimson Glory живет, но не уверен процветает ли. Если что я про маски участников группы (IMG:style_emoticons/default/crazy.gif)
Go to the top of the page
  Insert nick Quick quote
+Quote Post
post Dec 4 2019, 13:37:47
Post #3

South Of Heaven /адепт ВУДУ
**************
Group: Металариец
Posts: 13,960
Releases: 9
On Forums: 9 years 8 months
Thanks: 5295 time(s)
Unknown


Это какой-то неправильный мёд хэви (IMG:style_emoticons/default/crazy.gif)
Go to the top of the page
  Insert nick Quick quote
+Quote Post

Reply to this topicStart new topic
1 User(s) are reading this topic (1 Guests and 0 Anonymous Users)
0 Members:

 



- Lo-Fi Version Support form
Copyrights and abuse reports form
Time is now: 10th December 2019 - 11:14:34