Welcome Guest ( Log In | Register )

> И неформату есть предел.

Рэп/хип-хоп/шансон/поп удаляются. Для них есть свои порталы.

> Snakes Don't Belong In Alaska & Suzuki Junzo - The Ascended Master Teachings Of Junzo Suzuki & Snakes Don't Belong In Alaska (2019), Psychedelic/Space Rock/Krautrock
post Dec 3 2019, 08:50:54
Post #1

Правь статус, ####!111
**************
Group: Металариец
Posts: 44,507
Releases: 688
On Forums: 10 years 6 months
Thanks: 35842 time(s)
Russian Federation


(IMG:https://metalarea.org/images/audiocovers/2019_Dec/acov_tid331103_thumb.jpg)

*Artist: Snakes Don't Belong In Alaska & Suzuki Junzo
*Album: The Ascended Master Teachings Of Junzo Suzuki & Snakes Don't Belong In Alaska
*Year: 2019
*Genre: Psychedelic/Space Rock/Krautrock
*Country: United Kingdom (IMG:https://metalarea.org/forum/style_images/flags/United%20Kingdom.png)
*Format: mp3@CBR320kbps
*Size: 169MB

Tracklist:
1. Outer Heaven's Gate Pt. I: Higher Source 22:54
2. Outer Heaven's Gate Pt. II: Away Team 18:40
3. The Order Of The Ash Ra Solar Tempel 18:29
4. SurRaëlism 13:44
******************************
Total playing time: 1:13:47



Technical info
(IMG:https://metalarea.org/images/spectrogram/2019_Dec/165d1cd0a1a3cbd4bc52bb78f76d1234.png)
Input File: 01-Outer Heavens Gate Pt I - Higher Source.mp3
Channels : 2
Sample Rate : 44100
Precision : 16-bit
Duration : 00:22:54.85 = 60630797 samples = 103114 CDDA sectors
File Size : 55.2M
Bit Rate : 321k
Sample Encoding: MPEG audio (layer I, II or III)
Comments :
Title=Outer Heavens Gate Pt I: Higher Source
Artist=Junzo Suzuki And Snakes Dont Belong In Alaska
Album=The Ascended Master Teachings Of
Tracknumber=1
Year=2019
Genre=psychedelic rock



Register


Go to the top of the page
  Insert nick Quick quote
+Quote Post
 
Start new topic
Replies (1 - 2)
post Dec 3 2019, 20:13:24
Post #2

Правь статус, ####!111
**************
Group: Металариец
Posts: 44,507
Releases: 688
On Forums: 10 years 6 months
Thanks: 35842 time(s)
Russian Federation


Real dope shit. (IMG:style_emoticons/default/pray.gif)
Go to the top of the page
  Insert nick Quick quote
+Quote Post
post Dec 3 2019, 20:42:16
Post #3

Наливай!
**************
Group: Металариец
Posts: 5,481
Releases: 27
From: Москва-Бибирево
On Forums: 11 years 8 months
Thanks: 2671 time(s)
Russian Federation


Go to the top of the page
  Insert nick Quick quote
+Quote Post

Reply to this topicStart new topic
1 User(s) are reading this topic (1 Guests and 0 Anonymous Users)
0 Members:

 



- Lo-Fi Version Support form
Copyrights and abuse reports form
Time is now: 10th December 2019 - 12:23:14