Welcome Guest ( Log In | Register )

> И неформату есть предел.

Рэп/хип-хоп/шансон/поп удаляются. Для них есть свои порталы.

> Ayahuasca - Naad (2019), Psychedelic/Stoner Rock/Heavy Psych (D7)
post Dec 3 2019, 08:54:55
Post #1

Правь статус, ####!111
**************
Group: Металариец
Posts: 44,506
Releases: 688
On Forums: 10 years 6 months
Thanks: 35839 time(s)
Russian Federation


(IMG:https://metalarea.org/images/audiocovers/2019_Dec/acov_tid331104_thumb.jpg)

*Artist: Ayahuasca
*Album: Naad
*Year: 2019
*Genre: Psychedelic/Stoner Rock/Heavy Psych
*Country: Italy (IMG:https://metalarea.org/forum/style_images/flags/Italy.png)
*Format: mp3@CBR320kbps
*Size: 83MB

Tracklist:
1. Intro 02:40
2. Vicious Mothers 05:00
3. Masses 04:56
4. Before Death 02:05
5. I Wanna Fall 04:14
6. Inner Space 05:10
7. Before Life 00:59
8. The Black One 03:27
9. Underwater 01:52
10. The Seer & The Queen 06:01
******************************
Total playing time: 36:24



Technical info
(IMG:https://metalarea.org/images/spectrogram/2019_Dec/1477d5856d26821cf5ee1318203a17aa.png)
Input File: 02 Vicious Mothers.mp3
Channels : 2
Sample Rate : 44100
Precision : 16-bit
Duration : 00:05:00.81 = 13265633 samples = 22560.6 CDDA sectors
File Size : 12.0M
Bit Rate : 320k
Sample Encoding: MPEG audio (layer I, II or III)
Comments :
Title=Vicious Mothers
Artist=AyahuascA
Album=Naad
Tracknumber=02/10
Year=2019
Genre=Psychedelic/Stoner Rock



Register


Go to the top of the page
  Insert nick Quick quote
+Quote Post
 
Start new topic
Replies (1 - 2)
post Dec 3 2019, 20:12:51
Post #2

Правь статус, ####!111
**************
Group: Металариец
Posts: 44,506
Releases: 688
On Forums: 10 years 6 months
Thanks: 35839 time(s)
Russian Federation


С женщинами на вокале как Андрюша любит.
Go to the top of the page
  Insert nick Quick quote
+Quote Post
post Dec 4 2019, 21:07:02
Post #3

De Mysteriis Dom Sathanas
**************
Group: Металариец
Posts: 3,757
Releases: 63
From: Doom
On Forums: 11 years 4 months
Thanks: 3166 time(s)
Russian Federation


Название порадовало (IMG:style_emoticons/default/25.gif)
Go to the top of the page
  Insert nick Quick quote
+Quote Post

Reply to this topicStart new topic
1 User(s) are reading this topic (1 Guests and 0 Anonymous Users)
0 Members:

 



- Lo-Fi Version Support form
Copyrights and abuse reports form
Time is now: 10th December 2019 - 11:23:05