Welcome Guest ( Log In | Register )

> Releases Upload / Добавление релизов

Добавить релиз тут / Click here to add release
Рекомендованные обменники / Recommended file shares

 
Reply to this topicStart new topic
> Ex Libris - Ann (A Progressive Metal Trilogy) [compilation] (2019), Symphonic/Gothic Metal
post Dec 3 2019, 14:47:34
Post #1

Serial Uploader
Group Icon
Group: V.I.P
Posts: 36,592
Releases: 34781
From: Lithuania
On Forums: 11 years 6 months
Thanks: 407312 time(s)
Lithuania


(IMG:https://metalarea.org/images/audiocovers/2019_Dec/acov_tid331106_thumb.jpg)

*Artist: Ex Libris
*Album: Ann (A Progressive Metal Trilogy) [compilation]
*Year: 2019
*Genre: Symphonic/Gothic Metal
*Country: Netherlands (IMG:https://metalarea.org/forum/style_images/flags/Netherlands.png)
*Format: mp3@CBR320kbps
*Size: 123MB

Tracklist:
01. Chapter 1 – Anne Boleyn: The Courtship 06:13
02. Chapter 1 – Anne Boleyn: The Miscarriage 04:33
03. Chapter 1 – Anne Boleyn: The Beheading 06:57
04. Chapter 2 – Anastasia Romanova: The Motherland 06:45
05. Chapter 2 – Anastasia Romanova: The Healer 05:42
06. Chapter 2 – Anastasia Romanova: The Exile 08:10
07. Chapter 3 – Anne Frank: The Diary 04:22
08. Chapter 3 – Anne Frank: The Annex 06:03
09. Chapter 3 – Anne Frank: The Raid 10:16
******************************
Total playing time: 59:01



(IMG:https://metalarea.org/images/youtube.png)

Technical info
(IMG:https://metalarea.org/images/spectrogram/2019_Dec/08552affc2fb6ceddeb3dc0aa56c72e1.png)
Input File: 02. Chapter 1 - Anne Boleyn- The Miscarriage.mp3
Channels : 2
Sample Rate : 44100
Precision : 16-bit
Duration : 00:04:33.31 = 12053015 samples = 20498.3 CDDA sectors
File Size : 11.0M
Bit Rate : 321k
Sample Encoding: MPEG audio (layer I, II or III)
Comments :
Title=Chapter 1 - Anne Boleyn: The Miscarriage
Artist=Ex Libris
Album=Ann (A Progressive Metal Trilogy)
Tracknumber=2/9
Year=2019
Genre=9
Discnumber=1/1



Register


Go to the top of the page
  Insert nick Quick quote
+Quote Post

Reply to this topicStart new topic
1 User(s) are reading this topic (1 Guests and 0 Anonymous Users)
0 Members:

 



- Lo-Fi Version Support form
Copyrights and abuse reports form
Time is now: 11th December 2019 - 04:06:26