Welcome Guest ( Log In | Register )

> Releases Upload / Добавление релизов

Добавить релиз тут / Click here to add release
Рекомендованные обменники / Recommended file shares

 
Reply to this topicStart new topic
> Punch Women Protocol - Back To Basics (2019), Porno Goregrind
post Dec 3 2019, 15:15:40
Post #1

Serial Uploader
Group Icon
Group: V.I.P
Posts: 36,589
Releases: 34778
From: Lithuania
On Forums: 11 years 6 months
Thanks: 407273 time(s)
Lithuania


(IMG:https://metalarea.org/images/audiocovers/2019_Dec/acov_tid331107_thumb.jpg)

*Artist: Punch Women Protocol
*Album: Back To Basics
*Year: 2019
*Genre: Porno Goregrind
*Country: Finland (IMG:https://metalarea.org/forum/style_images/flags/Finland.png)
*Format: mp3@CBR320kbps
*Size: 64MB

Tracklist:
01. I Have So Many Disgusting Things In My Asshole 02:58
02. I'm Such A Nice Guy 04:43
03. Granny Incest 01:31
04. The White Finnish Uprising 04:30
05. Redneck Nation (Cuntry) 04:41
06. I Rape Monkeys In My Basement 01:44
07. Drip Juice (Interlude) 02:02
08. Piss Baby 02:30
09. Fucking Your Wife 01:46
10. Den Heliga Skrift 02:40
******************************
Total playing time: 29:05


(IMG:https://metalarea.org/images/youtube.png)

Technical info
(IMG:https://metalarea.org/images/spectrogram/2019_Dec/2eb19441c7f05240d49e4694cb0396b1.png)
Input File: 02. I\'m Such a Nice Guy.mp3
Channels : 2
Sample Rate : 44100
Precision : 16-bit
Duration : 00:04:43.71 = 12511391 samples = 21277.9 CDDA sectors
File Size : 11.4M
Bit Rate : 322k
Sample Encoding: MPEG audio (layer I, II or III)
Comments :
Title=I'm Such a Nice Guy
Artist=Punch Women Protocol
Album=Back to Basics
Tracknumber=2
Year=2019



Register


Go to the top of the page
  Insert nick Quick quote
+Quote Post

Reply to this topicStart new topic
1 User(s) are reading this topic (1 Guests and 0 Anonymous Users)
0 Members:

 



- Lo-Fi Version Support form
Copyrights and abuse reports form
Time is now: 10th December 2019 - 11:13:44