Welcome Guest ( Log In | Register )

> Releases Upload / Добавление релизов

Добавить релиз тут / Click here to add release
Рекомендованные обменники / Recommended file shares

 
Reply to this topicStart new topic
> Charcuterie & Junt - Charcuterie​/Junt [split] (2019), Goregrind | Goregrind (D9)
post Dec 3 2019, 15:35:08
Post #1

Serial Uploader
Group Icon
Group: V.I.P
Posts: 36,592
Releases: 34781
From: Lithuania
On Forums: 11 years 6 months
Thanks: 407312 time(s)
Lithuania


(IMG:https://metalarea.org/images/audiocovers/2019_Dec/acov_tid331108_thumb.jpg)

*Artist: Charcuterie & Junt
*Album: Charcuterie​/Junt [split]
*Year: 2019
*Genre: Goregrind | Goregrind
*Country: United States (IMG:https://metalarea.org/forum/style_images/flags/United%20States.png) | United States (IMG:https://metalarea.org/forum/style_images/flags/United%20States.png)
*Format: mp3@CBR320kbps
*Size: 34MB

Tracklist:
Charcuterie:
01. Abdominal Pocket Flap 02:03
02. Shiny, Fibrous Nodules 01:13
03. Fucked Into Coma 01:51
04. Attempts To Manually Remove Impacted Feces 01:00
05. You Can't Stop Me From Jerking Off In The Work Bathroom 01:17
Junt:
06. Amabala 00:39
07. Juugin 00:49
08. 666x The Kief 00:52
09. 5 Trax 03:33
10. Boolin Fools (Live) 00:56
******************************
Total playing time: 14:13




Technical info
(IMG:https://metalarea.org/images/spectrogram/2019_Dec/bf10ea342006c4503cda3f269707ba60.png)
Input File: 02. Shiny, Fibrous Nodules.mp3
Channels : 2
Sample Rate : 44100
Precision : 16-bit
Duration : 00:01:13.85 = 3256873 samples = 5538.9 CDDA sectors
File Size : 3.15M
Bit Rate : 341k
Sample Encoding: MPEG audio (layer I, II or III)
Comments :
Title=Shiny, Fibrous Nodules
Artist=Charcuterie
Album=split w/ Junt
Tracknumber=2
Year=2019



Register


Go to the top of the page
  Insert nick Quick quote
+Quote Post

Reply to this topicStart new topic
1 User(s) are reading this topic (1 Guests and 0 Anonymous Users)
0 Members:

 



- Lo-Fi Version Support form
Copyrights and abuse reports form
Time is now: 11th December 2019 - 04:21:29