Welcome Guest ( Log In | Register )

> Releases Upload / Добавление релизов

Добавить релиз тут / Click here to add release
Рекомендованные обменники / Recommended file shares

> Geschlecht - New Load Continue (2019), Melodic Death/Groove Metal
post Dec 3 2019, 17:15:15
Post #1

Шесть Литров
******
Group: Металариец
Posts: 506
Releases: 23
On Forums: 11 years 3 weeks
Thanks: 531 time(s)
Russian Federation


(IMG:http://metalarea.org/images/audiocovers/2019_Dec/acov_tid331110_thumb.jpg)

*Artist: Geschlecht
*Album: New Load Continue
*Year: 2019
*Genre: Melodic Death/Groove Metal
*Country: Italy (IMG:http://metalarea.org/forum/style_images/flags/Italy.png)
*Format: mp3@CBR320kbps
*Size: 105MB

Tracklist:
01. Geschlecht 05:11
02. Cursed 03:44
03. Bloodmoon 03:19
04. The Power of Five 03:12
05. The Prophecy 04:11
06. One Mind 03:57
07. Legion XXI 03:32
08. Home Sweet Home 03:48
09. To Trascend 04:19
10. Game Over 03:39
11. Survivor 03:11
12. An Infinite Nightmare 03:41
******************************
Total playing time: 45:44

Preview 1

Extended info
Lineup:
Edoardo Volpato Bass
Fabio Speroni Drums
Amedeo Casale Guitars
Amedeo Finati Vocals


Technical info
(IMG:http://metalarea.org/images/spectrogram/2019_Dec/f290060b51649ed5e326075c57f67aae.png)
Input File: 01-Geschlecht.mp3
Channels : 2
Sample Rate : 44100
Precision : 16-bit
Duration : 00:05:11.06 = 13717746 samples = 23329.5 CDDA sectors
File Size : 12.4M
Bit Rate : 320k
Sample Encoding: MPEG audio (layer I, II or III)
Comments :
Title=Geschlecht
Artist=Geschlecht
Album=New Load Continue
Tracknumber=1/12
Year=2019
Genre=Melodic Death/Groove Metal
Discnumber=1/1



Register


Go to the top of the page
  Insert nick Quick quote
+Quote Post
 
Start new topic
Replies (1 - 1)
post Dec 3 2019, 19:21:54
Post #2

Шесть Литров
******
Group: Металариец
Posts: 506
Releases: 23
On Forums: 11 years 3 weeks
Thanks: 531 time(s)
Russian Federation


FLAC tracks
Register


Thanks:
(1) Olethros,
Go to the top of the page
  Insert nick Quick quote
+Quote Post

Reply to this topicStart new topic
1 User(s) are reading this topic (1 Guests and 0 Anonymous Users)
0 Members:

 



- Lo-Fi Version Support form
Copyrights and abuse reports form
Time is now: 10th December 2019 - 11:19:15