Welcome Guest ( Log In | Register )

> Nihilanth - Thy Bookkeeper Of Death (2019), Raw Black Metal
post Dec 3 2019, 18:04:45
Post #1

Правь статус, ####!111
**************
Group: Металариец
Posts: 2,922
Releases: 2617
From: Одесса
On Forums: 12 years 1 month
Thanks: 25193 time(s)
Ukraine


(IMG:http://metalarea.org/images/audiocovers/2019_Dec/acov_tid331112_thumb.jpg)

*Artist: Nihilanth
*Album: Thy Bookkeeper Of Death
*Year: 2019
*Genre: Raw Black Metal
*Country: United States (IMG:http://metalarea.org/forum/style_images/flags/United%20States.png)
*Format: mp3@CBR320kbps
*Size: 94MB

Tracklist:
1.Now Let's Kill 'til No More
2.Expose Your Holy Fairy Tale
3.Fathoms Beneath the Acidic Ocean
4.Between Bloodlust and Metal
5.Powers of the Morbid Emperor
6.Thy Bookkeeper of Death
7.Obey the Cursed Oath
8.We Are the Bleeding World
******************************
Total playing time: 40:24



Extended info


Technical info
(IMG:http://metalarea.org/images/spectrogram/2019_Dec/aac503fb26d3a0eab271b3c6aa26520f.png)
Input File: 03. Fathoms Beneath the Acidic Ocean.mp3
Channels : 2
Sample Rate : 44100
Precision : 16-bit
Duration : 00:03:11.39 = 8440123 samples = 14354 CDDA sectors
File Size : 7.66M
Bit Rate : 320k
Sample Encoding: MPEG audio (layer I, II or III)
Comments :
Title=Fathoms Beneath the Acidic Ocean
Artist=Nihilanth
Album=Thy Bookkeeper of Death
Tracknumber=3
Year=2019
Genre=Raw Black Metal



Register


Go to the top of the page
  Insert nick Quick quote
+Quote Post
 
Start new topic
Replies (1 - 3)
post Dec 3 2019, 20:23:05
Post #2

Дети, блуждающие в Пустошах, возрадуйтесь! Атом даёт вам шанс на спасение!
********
Group: Металариец
Posts: 845
Releases: 147
From: Одеса
On Forums: 6 years 6 months
Thanks: 2242 time(s)
Ukraine


(IMG:https://i.ytimg.com/vi/Umkm1WIABWo/maxresdefault.jpg)
Go to the top of the page
  Insert nick Quick quote
+Quote Post
post Jan 2 2020, 20:40:21    Сейчас играет: Glorior Belli - The Forbidden Words
Post #3

antithesis
**************
Group: Металариец
Posts: 3,127
Releases: 34
From: VRN
On Forums: 10 years 1 month
Thanks: 1942 time(s)
Russian Federation


mirror, pls
Go to the top of the page
  Insert nick Quick quote
+Quote Post
post Jan 2 2020, 21:08:47
Post #4
BAN
Banned till
Jul 17 2020, 21:47:37



Судя по названию ребята любят Half Life

Точнее парень. Не глянул сначала что это одиночный проект.
Go to the top of the page
  Insert nick Quick quote
+Quote Post

Reply to this topicStart new topic
1 User(s) are reading this topic (1 Guests and 0 Anonymous Users)
0 Members:

 



- Lo-Fi Version Support form
Copyrights and abuse reports form
Time is now: 12th July 2020 - 04:12:28