Welcome Guest ( Log In | Register )

> Releases Upload / Добавление релизов

Добавить релиз тут / Click here to add release
Рекомендованные обменники / Recommended file shares

> Nihilanth - Thy Bookkeeper Of Death (2019), Raw Black Metal
post Dec 3 2019, 18:04:45
Post #1

Каждое ваше "Спасибо" помогает мне понять, что я делаю новости не напрасно.
**************
Group: Металариец
Posts: 2,109
Releases: 1858
From: Одесса
On Forums: 11 years 6 months
Thanks: 16308 time(s)
Ukraine


(IMG:http://metalarea.org/images/audiocovers/2019_Dec/acov_tid331112_thumb.jpg)

*Artist: Nihilanth
*Album: Thy Bookkeeper Of Death
*Year: 2019
*Genre: Raw Black Metal
*Country: United States (IMG:http://metalarea.org/forum/style_images/flags/United%20States.png)
*Format: mp3@CBR320kbps
*Size: 94MB

Tracklist:
1.Now Let's Kill 'til No More
2.Expose Your Holy Fairy Tale
3.Fathoms Beneath the Acidic Ocean
4.Between Bloodlust and Metal
5.Powers of the Morbid Emperor
6.Thy Bookkeeper of Death
7.Obey the Cursed Oath
8.We Are the Bleeding World
******************************
Total playing time: 40:24



Extended info


Technical info
(IMG:http://metalarea.org/images/spectrogram/2019_Dec/aac503fb26d3a0eab271b3c6aa26520f.png)
Input File: 03. Fathoms Beneath the Acidic Ocean.mp3
Channels : 2
Sample Rate : 44100
Precision : 16-bit
Duration : 00:03:11.39 = 8440123 samples = 14354 CDDA sectors
File Size : 7.66M
Bit Rate : 320k
Sample Encoding: MPEG audio (layer I, II or III)
Comments :
Title=Fathoms Beneath the Acidic Ocean
Artist=Nihilanth
Album=Thy Bookkeeper of Death
Tracknumber=3
Year=2019
Genre=Raw Black Metal



Register


Go to the top of the page
  Insert nick Quick quote
+Quote Post
 
Start new topic
Replies (1 - 1)
post Dec 3 2019, 20:23:05
Post #2

Дети, блуждающие в Пустошах, возрадуйтесь! Атом даёт вам шанс на спасение!
********
Group: Металариец
Posts: 845
Releases: 147
From: Одеса
On Forums: 5 years 10 months
Thanks: 2220 time(s)
Ukraine


(IMG:https://i.ytimg.com/vi/Umkm1WIABWo/maxresdefault.jpg)
Go to the top of the page
  Insert nick Quick quote
+Quote Post

Reply to this topicStart new topic
1 User(s) are reading this topic (1 Guests and 0 Anonymous Users)
0 Members:

 



- Lo-Fi Version Support form
Copyrights and abuse reports form
Time is now: 10th December 2019 - 11:33:11