Welcome Guest ( Log In | Register )

> Releases Upload / Добавление релизов

Добавить релиз тут / Click here to add release
Рекомендованные обменники / Recommended file shares

> Dead Man Risen - Senseless Hollow (2019), Death Metal
post Dec 3 2019, 19:33:15
Post #1

Каждое ваше "Спасибо" помогает мне понять, что я делаю новости не напрасно.
**************
Group: Металариец
Posts: 2,109
Releases: 1858
From: Одесса
On Forums: 11 years 6 months
Thanks: 16308 time(s)
Ukraine


(IMG:http://metalarea.org/images/audiocovers/2019_Dec/acov_tid331114_thumb.jpg)

*Artist: Dead Man Risen
*Album: Senseless Hollow
*Year: 2019
*Genre: Death Metal
*Country: South Africa (IMG:http://metalarea.org/forum/style_images/flags/South%20Africa.png)
*Format: mp3@CBR320kbps
*Size: 107MB

Tracklist:
1.Distopia
2.To Regain the Ocean
3.Somnolence
4.Senseless Hollow
5.The Horse and the Sword
6.The Seeker
7.Solar Storm
8.The Journey Through Silence
******************************
Total playing time: 44:43



Extended info
Line - up:

Shaun Mitchell - All instruments, Vocals (ex-Dreams of Nightmares)

(IMG:https://www.metal-archives.com/images/3/5/4/0/3540429067_photo.jpg?1911)


Technical info
(IMG:http://metalarea.org/images/spectrogram/2019_Dec/2a83b8db23632ffcf4cc53ce8e3e7768.png)
Input File: 3 - Somnolence.mp3
Channels : 2
Sample Rate : 44100
Precision : 16-bit
Duration : 00:04:00.08 = 10587572 samples = 18006.1 CDDA sectors
File Size : 9.63M
Bit Rate : 321k
Sample Encoding: MPEG audio (layer I, II or III)
Comments :
Title=Somnolence
Artist=Dead Man Risen
Album=Senseless Hollow
Tracknumber=3
Year=2019
Genre=22



Register


Go to the top of the page
  Insert nick Quick quote
+Quote Post
 
Start new topic
Replies (1 - 2)
post Dec 4 2019, 11:44:27
Post #2

Group: Дух
Posts: 4
Releases: 0
From: Россия
On Forums: 1 month 2 days
Thanks: 0 time(s)



Доброго времени суток, извиняюсь если темой ошибся, на моем компьютере открытие сайта происходит с ошибкой наверное проблема в браузере не пойму в чем проблема, у меня у одного так или у всех?
Go to the top of the page
  Insert nick Quick quote
+Quote Post
post Dec 8 2019, 19:04:45
Post #3

Три Литра
***
Group: Завсегдатай
Posts: 284
Releases: 0
From: Москва
On Forums: 11 years 3 months
Thanks: 46 time(s)
Russian Federation


Под пивко ребята вкатили! Да и на трезвяк тоже нормально.
Go to the top of the page
  Insert nick Quick quote
+Quote Post

Reply to this topicStart new topic
1 User(s) are reading this topic (1 Guests and 0 Anonymous Users)
0 Members:

 



- Lo-Fi Version Support form
Copyrights and abuse reports form
Time is now: 10th December 2019 - 11:47:08