Welcome Guest ( Log In | Register )

> Oss Nebes - Миф (2019), Black Metal
post Dec 4 2019, 08:08:36
Post #1

Правь статус, ####!111
**************
Group: Металариец
Posts: 19,812
Releases: 13428
From: Г.Харьков
On Forums: 7 years 7 months
Thanks: 232473 time(s)
Unknown


(IMG:https://metalarea.org/images/audiocovers/2019_Dec/acov_tid331120_thumb.jpg)

*Artist: Oss Nebes
*Album: Миф
*Year: 2019
*Genre: Black Metal
*Country: Russian Federation (IMG:https://metalarea.org/forum/style_images/flags/Russian%20Federation.png)
*Format: mp3@CBR320kbps
*Size: 96MB

Tracklist:
1. Око Бури 06:23
2. Антисвет 05:20
3. Сингулярность Хаоса 05:36
4. Испепеление 05:27
5. Отчаянием Меченый 07:23
6. Знак Разрушения 02:57
7. Упадка Предтеча 02:36
8. Выжженной Земли Гул 07:42
******************************
Total playing time: 43:24


Preview 2


Extended info
Alexander Osipov Guitars, Bass, Keyboards
Alexey Osipov Vocals, Lyrics


Technical info
(IMG:https://metalarea.org/images/spectrogram/2019_Dec/a6cf967673c1d4b57fa33e9332669528.png)
Input File: 04 - Испепеление.mp3
Channels : 2
Sample Rate : 44100
Precision : 16-bit
Duration : 00:05:27.85 = 14458185 samples = 24588.8 CDDA sectors
File Size : 13.1M
Bit Rate : 320k
Sample Encoding: MPEG audio (layer I, II or III)
Comments :
Title=Èñïåïåëåíèå
Artist=Oss Nebes
Album=Ìèô
Tracknumber=4
Year=2019
Genre=Black Metal



Register


Go to the top of the page
  Insert nick Quick quote
+Quote Post
 
Start new topic
Replies (1 - 1)
post Dec 4 2019, 18:32:16
Post #2

Три Литра
***
Group: Завсегдатай
Posts: 236
Releases: 4
From: урал
On Forums: 10 years 1 month
Thanks: 326 time(s)
Russian Federation


Ждем 320
Go to the top of the page
  Insert nick Quick quote
+Quote Post

Reply to this topicStart new topic
1 User(s) are reading this topic (1 Guests and 0 Anonymous Users)
0 Members:

 



- Lo-Fi Version Support form
Copyrights and abuse reports form
Time is now: 10th December 2019 - 11:43:17